Jump to content

Dobrodošli na Balkandownload.org
Tražite domaće knjige, exyu magazine, sinhronizirane crtane filmove, PC i ostale igre, strane i domaće filmove, dokumentarce, stranu i domaću muziku, itd. ? Ne morate tražiti dalje jer sve ćete to naći kod nas, uredno postavljeno i spremno za download. Osim toga registracijom možete sudjelovati u raznim postojećim temama na forumu, otvarati nove teme, sudjelovati u chatu i još mnogo toga. Ako već imaš otvoren račun, logiraj se ovde ,a ako želiš saznati zašto smo najbolji otvori novi račun i uverite se sami :)
Photo

Munje! (2001)


3 replies to this topic

#1
Tobacco Road

Tobacco Road

    The Warez GOD

  • Tobacco
  • PipPipPipPipPipPipPipPipPipPip
  • 23,348 posts
  • 996835 thanks
  • Locationscrls

Munje! (2001) DVDRip XviD

 

 

mla77o6a5y6vw6ifpz1p.jpg

 

 

 

Režiser: Radivoje Andric
Pisci: Srdja Andjelic
Zvezde filma: Boris Milivojevic || Sergej Trifunovic || Maja Mandzuka
Žanr: Komedija
Vreme: 90 min
 
Beograd devedesetih. Za dva drugara Popa i Mareta ovo je samo jedna noć u nizu mnogih sličnih. Njih dvojica su poverili svoju demo-audio-kasetu nekadašnjem školskom drugu Gojku, da im za 350 DM napravi kompakt-disk. Gojko sada ima telohranitelja i dobro odelo, ali se dobro seća kako su ga zezali u detinjstvu i rešio je da ih 'ispali'. Šta sad?
 
 
 

Please Login or Register to see this Hidden Content


 

 

Kako skinuti nesto sa Balkandownload-a?

www.slideshare.net/bd4yu/kako-skidati-fajlove-sa-balkan-download-a

Kako da pronadjete zeljeni sadrzaj na forumu? 

www.balkandownload.org/topic/40428-kako-pronaci-zeljeni-sadrzaj-na-forumu/

Najmračniji krugovi pakla su rezervisani za one koji u vremenima moralne krize ostanu neutralni i suzdržani -Dante Alighieri


Thanked by 191 Members:

#2
Biotloneta

Biotloneta

    Bronze Member

  • Moderator
  • PipPipPipPip
  • 1,409 posts
  • 66403 thanks
  • LocationRobija
                               Munje! (2001)
 
                                         max1143665732-frontback-cover.jpg
 

Please Login or Register to see this Hidden Content

 
Opis: Radnja ove urbane komedije dešava se tokom jedne beogradske noci. Mare, Pop i Gojko su trojica drugova koji su odrasli zajedno. Mare i Pop su oduvek bili muzicari, dok je Gojko (koga su njih dvojica maltretirala i dala mu nadimak Sisa) postao poslovan covek, vlasnik kluba i studija za snimanje. Pop i Mare traže od svog školskog druga da im pomogne da izdaju svoj album, ali Gojko nije zaboravio školske dane i sveti im se.
 
Uloge:
Boris Milivojevic Mare
Sergej Trifunovic Pop
Maja Mandžuka Kata
Milica Vujovic Lola
Zoran Cvijanovic Deda Mraz
Nebojša Glogovac Pandur
Nikola Ðuricko Gojko Sisa
Dušan Milašinovic Milance
Dušan Savic samog sebe
Danijela Vranješ komšinica/violinistkinja
Nada Andelic Maretova majka
Vesna Trivalic Glas Popove majke / glas Pandureve majke
Li Dejvis americki agent
Vuk Kostic
Igor Brakus
 
Režija: Radivoje Andric
 
Žanr: Komedija
 
7hX5Zvb.jpg
 
Hidden Content
You'll be able to see the hidden content once you thank this post.

  tumblr_o89ik1YZEl1ssbvp5o1_500.gif

 

Za repload mrtvih linkova (domaćih filmova) ili želje za postavljanjem nekog filma kog ne možete da pronađete, obratite mi se putem privatne poruke.


Thanked by 198 Members:

#3
Wolf 13

Wolf 13

    Advanced Member

  • Members
  • PipPipPip
  • 426 posts
  • 33679 thanks
Munje! (2001) DVDrip E-AC3 x264 by Wolf
(MKV)
 
hotIF2M.jpg
 

Please Login or Register to see this Hidden Content

 

General
Unique ID                   : 45289637851950475948796458493361950194 (0x2212778B68892EE697751679865E8DF2)
Complete name               : Munje! (2001) DVDrip E-AC3 x264 by Wolf.mkv
Format                      : Matroska
Format version              : Version 4 / Version 2
File size                   : 1.09 GiB
Duration                    : 1 h 30 min
Overall bit rate            : 1 727 kb/s
Encoded date                : UTC 2018-10-26 15:14:25 / UTC 2018-10-26T11:57:09Z
Writing application         : mkvmerge v28.1.0 ('Morning Child') 64-bit
Writing library             : libebml v1.3.6 + libmatroska v1.4.9 / Lavf57.7.2
 
Video
ID                          : 1
Format                      : AVC
Format/Info                 : Advanced Video Codec
Format profile              : High [email protected]
Format settings             : CABAC / 8 Ref Frames
Format settings, CABAC      : Yes
Format settings, ReFrames   : 8 frames
Codec ID                    : V_MPEG4/ISO/AVC
Duration                    : 1 h 30 min
Bit rate                    : 1 500 kb/s
Width                       : 714 pixels
Height                      : 576 pixels
Display aspect ratio        : 16:9
Original display aspect rat : 16:9
Frame rate mode             : Constant
Frame rate                  : 25.000 FPS
Color space                 : YUV
Chroma subsampling          : 4:2:0
Bit depth                   : 10 bits
Scan type                   : Progressive
Bits/(Pixel*Frame)          : 0.146
Stream size                 : 931 MiB (83%)
Title                       : Munje! (2001)
Writing library             : x264 core 155 r2901 7d0ff22
Encoding settings           : cabac=1 / ref=8 / deblock=1:-1:-1 / analyse=0x3:0x133 / me=umh / subme=9 / psy=1 / psy_rd=1.00:0.15 / mixed_ref=1 / me_range=16 / chroma_me=1 / trellis=2 / 8x8dct=1 / cqm=0 / deadzone=21,11 / fast_pskip=1 / chroma_qp_offset=-3 / threads=6 / lookahead_threads=1 / sliced_threads=0 / nr=0 / decimate=1 / interlaced=0 / bluray_compat=0 / constrained_intra=0 / bframes=3 / b_pyramid=2 / b_adapt=2 / b_bias=0 / direct=3 / weightb=1 / open_gop=0 / weightp=2 / keyint=250 / keyint_min=25 / scenecut=40 / intra_refresh=0 / rc_lookahead=60 / rc=2pass / mbtree=1 / bitrate=1500 / ratetol=1.0 / qcomp=0.60 / qpmin=0 / qpmax=81 / qpstep=4 / cplxblur=20.0 / qblur=0.5 / vbv_maxrate=150000 / vbv_bufsize=187500 / nal_hrd=none / filler=0 / ip_ratio=1.40 / aq=1:1.00
Language                    : Serbian
Default                     : Yes
Forced                      : No
Color range                 : Limited
Color primaries             : BT.601 PAL
Transfer characteristics    : BT.709
Matrix coefficients         : BT.601
Statistics Tags Issue       : mkvmerge v28.1.0 ('Morning Child') 64-bit 2018-10-26 15:14:25 / mkvmerge v28.1.0 ('Morning Child') 64-bit 2018-10-26 15:14:25 / UTC 2018-10-26T11:57:09Z
FromStats_BitRate           : 1499865
FromStats_Duration          : 01:28:43.000000000
FromStats_FrameCount        : 133075
FromStats_StreamSize        : 997973224
 
Audio
ID                          : 2
Format                      : E-AC-3
Format/Info                 : Enhanced Audio Coding 3
Codec ID                    : A_EAC3
Duration                    : 1 h 30 min
Bit rate mode               : Constant
Bit rate                    : 256 kb/s
Channel(s)                  : 6 channels
Channel positions           : Front: L C R, Side: L R, LFE
Sampling rate               : 48.0 kHz
Frame rate                  : 187.500 FPS (256 SPF)
Compression mode            : Lossy
Stream size                 : 166 MiB (15%)
Title                       : Munje! (2001)
Language                    : Serbian
Service kind                : Complete Main
Default                     : Yes
Forced                      : No
Statistics Tags Issue       : mkvmerge v28.1.0 ('Morning Child') 64-bit 2018-10-26 15:14:25 / mkvmerge v28.1.0 ('Morning Child') 64-bit 2018-10-26 15:14:25 / UTC 2018-10-26T11:57:09Z
FromStats_BitRate           : 256000
FromStats_Duration          : 01:30:32.960000000
FromStats_FrameCount        : 169780
FromStats_StreamSize        : 173854720
 
epYscVA.png
Hidden Content
You'll be able to see the hidden content once you thank this post.
 
Fnvy69m.png
fjetZ9N.jpg


Thanked by 104 Members:

#4
Zoran_

Zoran_

    Gold Member

  • VIP
  • PipPipPipPipPipPip
  • 6,007 posts
  • 150133 thanks
Munje! (2001)
 
 
Munje2001.png
 
Su6Ksi6.jpg
 

Please Login or Register to see this Hidden Content

 
Beograd devedesetih, samo jedna noć u nizu mnogih sličnih, dva drugara, Pop i Mare poverili su svoju demo-audio -kasetu svom nekadašnjem školskom drugu Gojku, koji se dobro obukao, ima telohranitelja i dobro odelo, da im za 350 DM načini kompakt-disk. On, međutim, ima dobro pamćenje da su ga u detinjstvu mnogo zezali (nadimak Sisa i sve ostalo pride) pa je rešio da ih spali. Šta sad? Duga je beogradska noć, njih uzgred zanima lepa devojčica Kata, tu je i druga devojka sa muzičkim ambicijama Lola koja želi da peva, ali nema prateći bend. Pri tom iskrsava provalnik u liku Deda-Mraza, a kad se potom pojavi milicioner, skriveni simpatizer opozicije, ekipa je spremna za konačan obračun sa Gojkom.
 
myk5xvyped.png
 
Munje2001.avi.gif
 
Munje2001.avi.jpg
 
Oets6ur.gif
 
Munje! (2001) DVDRip.XviD.avi
 
SFYUbuP.jpg
 
Hidden Content
You'll be able to see the hidden content once you thank this post.

Molbe za moje linkove, šaljite na PP.

 

Zabranjeno je kopiranje mojih linkova,reupload i postavljanje na druge forume!


Thanked by 80 Members:



0 user(s) are reading this topic

0 members, 0 guests, 0 anonymous users