Jump to content

Dobrodošli na Balkandownload.org
Tražite domaće knjige, exyu magazine, sinhronizirane crtane filmove, PC i ostale igre, strane i domaće filmove, dokumentarce, stranu i domaću muziku, itd. ? Ne morate tražiti dalje jer sve ćete to naći kod nas, uredno postavljeno i spremno za download. Osim toga registracijom možete sudjelovati u raznim postojećim temama na forumu, otvarati nove teme, sudjelovati u chatu i još mnogo toga. Ako već imaš otvoren račun, logiraj se ovde ,a ako želiš saznati zašto smo najbolji otvori novi račun i uverite se sami :)
Photo

Draft Day (2014)

Multi Single Links

  • Please log in to reply
3 replies to this topic

#1
RobertoWarez

RobertoWarez

    Bronze Member

  • Banovan
  • PipPipPipPip
  • 1,079 posts
  • 26 thanks
************************************************************
Draft Day (2014) CAM XviD MP3 RARBG
File Size: 676 MiB

************************************************************

YDbkv9g.jpg

Title: Draft Day
Year: 2014
Genre: Drama, Sport
Rating: N/A (N/A votes)
Runtime: N/A
Director: Ivan Reitman
Cast: Jennifer Garner, Kevin Costner, Tom Welling, Terry Crews
Plot:

Please Login or Register to see this Hidden Content

INFO:


General
Complete name : D.D.2014.CAM.XviD.MP3-RARBG.avi
Format : AVI
Format/Info : Audio Video Interleave
File size : 677 MiB
Duration : 1h 40mn
Overall bit rate : 940 Kbps

Video
ID : 0
Format : MPEG-4 Visual
Format profile : [email protected]
Format settings, BVOP : No
Format settings, QPel : No
Format settings, GMC : No warppoints
Format settings, Matrix : Default (H.263)
Codec ID : XVID
Codec ID/Hint : XviD
Duration : 1h 40mn
Bit rate : 800 Kbps
Width : 512 pixels
Height : 364 pixels
Display aspect ratio : 1.401
Frame rate : 23.976 fps
Color space : YUV
Chroma subsampling : 4:2:0
Bit depth : 8 bits
Scan type : Progressive
Compression mode : Lossy
Bits/(Pixel*Frame) : 0.179
Stream size : 576 MiB (85%)
Writing library : Lavc55.55.104

Audio
ID : 1
Format : MPEG Audio
Format version : Version 1
Format profile : Layer 3
Mode : Joint stereo
Codec ID : 55
Codec ID/Hint : MP3
Duration : 1h 40mn
Bit rate mode : Constant
Bit rate : 128 Kbps
Channel(s) : 2 channels
Sampling rate : 44.1 KHz
Compression mode : Lossy
Stream size : 92.2 MiB (14%)
Alignment : Aligned on interleaves
Interleave, duration : 26 ms (0.63 video frame)
Interleave, preload duration : 522 ms

iMDB:

Please Login or Register to see this Hidden Content

Movie Trailer:

Please Login or Register to see this Hidden Content

vlcsnap-2014-04-18-20h10.png

vlcsnap-2014-04-18-20h10.png

vlcsnap-2014-04-18-20h10.png


DOWNLOAD SINGLE LINKS:
Hidden Content
You'll be able to see the hidden content once you thank this post.

Edited by RobertoWarez, 18 April 2014 - 19:36.


Thanked by 1 Member:
draganauzice

#2
Madball

Madball

    Bronze Member

  • Members
  • PipPipPipPip
  • 2,008 posts
  • 4162 thanks

Draft Day (2014) CAM XviD MP3-RARBG

draft-day.jpg

Please Login or Register to see this Hidden Content



draft-day-2014-cam-xvid-.jpg

Language: English



kingfiles.jpg
Hidden Content
You'll be able to see the hidden content once you thank this post.

fileparadox.jpg
Hidden Content
You'll be able to see the hidden content once you thank this post.

uploadrocket.jpg
Hidden Content
You'll be able to see the hidden content once you thank this post.

1.gif
Hidden Content
You'll be able to see the hidden content once you thank this post.

image.gif


Thanked by 1 Member:
draganauzice

#3
Tobacco Road

Tobacco Road

    The Warez GOD

  • Tobacco
  • PipPipPipPipPipPipPipPipPipPip
  • 17,628 posts
  • 122171 thanks
  • Locationscrls

Draft Day (2014) HDRip XviD-EVO

 

 

draft-day.jpg

 

 

 

Please Login or Register to see this Hidden Content

 

 

Režiser: Ivan Reitman
Pisci: Scott Rothman || Rajiv Joseph
Zvezde filma: Kevin Costner || Jennifer Garner || Tom Welling || Sam Elliott
Žanr: Sportski Drama
 
Generalni menadžer tima američkog fudbala Cleveland Browns pokušava da dobije prvi pik na draftu za svoj tim.
 
 
uvN4vQm.jpg
 
 
 
Download
Hidden Content
You'll be able to see the hidden content once you thank this post.


Kako skinuti nesto sa Balkandownload-a?

 

 

http://www.slideshare.net/bd4yu/kako-skidati-fajlove-sa-balkan-download-a

 

 

Kako da pronadjete zeljeni sadrzaj na forumu? 

 

 

http://www.balkandownload.org/topic/40428-kako-pronaci-zeljeni-sadrzaj-na-forumu/

 

Najmračniji krugovi pakla su rezervisani za one koji u vremenima moralne krize ostanu neutralni i suzdržani -Dante Alighieri


Thanked by 1 Member:
draganauzice

#4
ParnY

ParnY

    Bronze Member

  • Administrator
  • 1,490 posts
  • 6129 thanks
Draft.Day.2014.REPACK.HDRip.XviD.AC3-EVO

bM5ftG.jpg

2sGBSL.png

oFLkTr.jpg






Download:

Single link:

Hidden Content
You'll be able to see the hidden content once you thank this post.

>>> SeedBox & RDP slots | 350GB (SB) / 400GB (RDP) HDD | 1Gbps | Unmetered | 8€ (SB) / 10€ (RDP) per month <<<






Also tagged with one or more of these keywords: Multi, Single Links

0 user(s) are reading this topic

0 members, 0 guests, 0 anonymous users