Jump to content

Dobrodošli na Balkandownload.org
Tražite domaće knjige, exyu magazine, sinhronizirane crtane filmove, PC i ostale igre, strane i domaće filmove, dokumentarce, stranu i domaću muziku, itd. ? Ne morate tražiti dalje jer sve ćete to naći kod nas, uredno postavljeno i spremno za download. Osim toga registracijom možete sudjelovati u raznim postojećim temama na forumu, otvarati nove teme, sudjelovati u chatu i još mnogo toga. Ako već imaš otvoren račun, logiraj se ovde ,a ako želiš saznati zašto smo najbolji otvori novi račun i uverite se sami :)
Photo

Zvyozdnaya komandirovka (1982)

sssr sf

  • Please log in to reply
2 replies to this topic

#1
LEMONZOO

LEMONZOO

    Advanced Member

  • VIP
  • PipPipPip
  • 739 posts
  • 3036 thanks
  • LocationGavran Mahala

Zvyozdnaya komandirovka (1982) aka Zvezdnaya Komandirovka - Russian

posterkef.jpg

Hidden Content
You'll be able to see the hidden content once you thank this post.

This is the story of a farm mechanic and guy from another planet, who - by some strange coincidence - is as like as two peas, and one day they change places...

 

zvezdnaya komandirovka.avi
Format                                   : AVI
Format/Info                              : Audio Video Interleave
File size                                : 700 MiB
Duration                                 : 1h 12mn
Overall bit rate mode                    : Variable
Overall bit rate                         : 1 344 Kbps
Writing application                      : VirtualDubMod 1.5.4.1 (build 2178/release)
Writing library                          : VirtualDubMod build 2178/release

Video
ID                                       : 0
Format                                   : MPEG-4 Visual
Format profile                           : Advanced [email protected]
Format settings, BVOP                    : 1
Format settings, QPel                    : No
Format settings, GMC                     : No warppoints
Format settings, Matrix                  : Custom
Codec ID                                 : XVID
Codec ID/Hint                            : XviD
Duration                                 : 1h 12mn
Bit rate                                 : 1 226 Kbps
Width                                    : 592 pixels
Height                                   : 448 pixels
Display aspect ratio                     : 4:3
Frame rate                               : 25.000 fps
Color space                              : YUV
Chroma subsampling                       : 4:2:0
Bit depth                                : 8 bits
Scan type                                : Progressive
Compression mode                         : Lossy
Bits/(Pixel*Frame)                       : 0.185
Stream size                              : 638 MiB (91%)
Writing library                          : XviD 1.2.0.dev47 (UTC 2006-11-01)

Audio
ID                                       : 1
Format                                   : MPEG Audio
Format version                           : Version 1
Format profile                           : Layer 3
Mode                                     : Joint stereo
Mode extension                           : MS Stereo
Codec ID                                 : 55
Codec ID/Hint                            : MP3
Duration                                 : 1h 12mn
Bit rate mode                            : Variable
Bit rate                                 : 105 Kbps
Nominal bit rate                         : 128 Kbps
Channel(s)                               : 2 channels
Sampling rate                            : 48.0 KHz
Compression mode                         : Lossy
Stream size                              : 54.8 MiB (8%)
Alignment                                : Aligned on interleaves
Interleave, duration                     : 24 ms (0.60 video frame)
Interleave, preload duration             : 533 ms
Writing library                          : LAME3.97
Encoding settings                        : -m j -V 4 -q 2 -lowpass 17 --abr 128
Language                                 : English



zvezdnayakomandirovkaav.jpg

zvezdnayakomandirovkaav.jpg

zvezdnayakomandirovkaav.jpg

zvezdnayakomandirovkaav.jpg



Hidden Content
You'll be able to see the hidden content once you thank this post.


Edited by LEMONZOO, 23 April 2014 - 12:40.


#2
Mistique

Mistique

    Advanced Member

  • Sponsor
  • PipPipPip
  • 556 posts
  • 13 thanks
  • LocationZa povrat računa kontaktiraj nadležne !

Kaze jezik da je English, nije English, trebaju mi titlovi, ili nasi ili English titlovi molim vas. Hvala.


Za povrat računa kontaktiraj nadležne !


#3
LEMONZOO

LEMONZOO

    Advanced Member

  • VIP
  • PipPipPip
  • 739 posts
  • 3036 thanks
  • LocationGavran Mahala

To su informacije iz Mediainfoa, s kojim sam izvukao tehničke podatke. Valjda je engleski namješten na default. U prvom redu sam napisao da je film na ruskom. Nažalost, nema nikakvih titlova. I ja bih ovo volio pogledati.







Also tagged with one or more of these keywords: sssr, sf

0 user(s) are reading this topic

0 members, 0 guests, 0 anonymous users