Jump to content

Dobrodošli na Balkandownload.org
Tražite domaće knjige, exyu magazine, sinhronizirane crtane filmove, PC i ostale igre, strane i domaće filmove, dokumentarce, stranu i domaću muziku, itd. ? Ne morate tražiti dalje jer sve ćete to naći kod nas, uredno postavljeno i spremno za download. Osim toga registracijom možete sudjelovati u raznim postojećim temama na forumu, otvarati nove teme, sudjelovati u chatu i još mnogo toga. Ako već imaš otvoren račun, logiraj se ovde ,a ako želiš saznati zašto smo najbolji otvori novi račun i uverite se sami :)
Photo

The Hour of the Pig (1993) aka The Advocate


  • Please log in to reply
1 reply to this topic

#1
LEMONZOO

LEMONZOO

    Advanced Member

  • VIP
  • PipPipPip
  • 739 posts
  • 3078 thanks
  • LocationGavran Mahala

The Hour of the Pig (1993) aka The Advocate

l-heure-du-cochon-affucp26.jpg

Hidden Content
You'll be able to see the hidden content once you thank this post.

 

Director: Leslie Megahey
Cast:
Colin Firth ... Richard Courtois
Ian Holm ... Albertus
Donald Pleasence ... Pincheon
Amina Annabi ... Samira
Nicol Williamson ... Seigneur Jehan d'Auferre
Michael Gough ... Magistrate Boniface
Harriet Walter ... Jeannine Martin

Description: Bizarre black comedy about 15th-century Paris lawyer Richard Courtois (Firth) who decides to ply his trade in the country, only to find things stranger than he can imagine. His first case turns out to be defending a pig that's accused of murdering a child. And the pig is owned by beautiful gypsy Samira (Annabi), so the idealistic lawyer can fall in love (or lust). There's religion and superstition, there's power struggles, there's ignorance versus knowledge--things sound very modern indeed.



General
Complete name                            : C:\Documents and Settings\Admin\Desktop\Za kopiranje C\The Hour Of The Pig 1993.avi
Format                                   : AVI
Format/Info                              : Audio Video Interleave
File size                                : 990.03 MiB
Duration                                 : 1h 47mn
Overall bit rate                         : 713 Kbps
Writing application                      : VirtualDubMod 1.5.4.1 (build 2178/release)
Writing library                          : VirtualDubMod build 2178/release

Video
ID                                       : 0
Format                                   : MPEG-4 Visual
Format profile                           : Advanced [email protected]
Format settings, BVOP                    : 1
Format settings, QPel                    : No
Format settings, GMC                     : No warppoints
Format settings, Matrix                  : Custom
Codec ID                                 : XVID
Codec ID/Hint                            : XviD
Duration                                 : 1h 47mn
Bit rate                                 : 548 Kbps
Width                                    : 704 pixels
Height                                   : 384 pixels
Display aspect ratio                     : 1.85:1
Frame rate                               : 25.000 fps
Color space                              : YUV
Chroma subsampling                       : 4:2:0
Bit depth                                : 8 bits
Scan type                                : Progressive
Compression mode                         : Lossy
Bits/(Pixel*Frame)                       : 0.081
Stream size                              : 423 MiB (77%)
Writing library                          : XviD 1.2.1 (UTC 2008-12-04)

Audio
ID                                       : 1
Format                                   : MPEG Audio
Format version                           : Version 1
Format profile                           : Layer 3
Mode                                     : Joint stereo
Mode extension                           : MS Stereo
Codec ID                                 : 55
Codec ID/Hint                            : MP3
Duration                                 : 1h 47mn
Bit rate mode                            : Constant
Bit rate                                 : 128 Kbps
Channel count                            : 2 channels
Sampling rate                            : 48.0 KHz
Compression mode                         : Lossy
Stream size                              : 98.8 MiB (18%)
Alignment                                : Aligned on interleaves
Writing library                          : LAME3.98r
Encoding settings                        : -m j -V 4 -q 2 -lowpass 17 -b 128
Language                                 : English



thehourofthepig1993.ad1r8r.jpg

thehourofthepig1993.a9bqq4.jpg

thehourofthepig1993.avcomu.jpg


Hidden Content
You'll be able to see the hidden content once you thank this post.

 

Thanks to original uploader.


Edited by LEMONZOO, 24 April 2014 - 02:57.


Thanked by 1 Member:
tfxedv

#2
LEMONZOO

LEMONZOO

    Advanced Member

  • VIP
  • PipPipPip
  • 739 posts
  • 3078 thanks
  • LocationGavran Mahala

The Hour of the Pig (1993) aka The Advocate

l-heure-du-cochon-affucp26.jpg

Hidden Content
You'll be able to see the hidden content once you thank this post.


Director: Leslie Megahey
Cast:
Colin Firth ... Richard Courtois
Ian Holm ... Albertus
Donald Pleasence ... Pincheon
Amina Annabi ... Samira
Nicol Williamson ... Seigneur Jehan d'Auferre
Michael Gough ... Magistrate Boniface
Harriet Walter ... Jeannine Martin

Description: Bizarre black comedy about 15th-century Paris lawyer Richard Courtois (Firth) who decides to ply his trade in the country, only to find things stranger than he can imagine. His first case turns out to be defending a pig that's accused of murdering a child. And the pig is owned by beautiful gypsy Samira (Annabi), so the idealistic lawyer can fall in love (or lust). There's religion and superstition, there's power struggles, there's ignorance versus knowledge--things sound very modern indeed.

Hour-of-the-Pig.AVI
Format                                   : AVI
Format/Info                              : Audio Video Interleave
File size                                : 695 MiB
Duration                                 : 1h 42mn
Overall bit rate mode                    : Variable
Overall bit rate                         : 949 Kbps
Writing application                      : Nandub v1.0rc2
Writing library                          : Nandub build 1853/release

Video
ID                                       : 0
Format                                   : MPEG-4 Visual
Format settings, BVOP                    : Yes
Format settings, QPel                    : No
Format settings, GMC                     : No warppoints
Format settings, Matrix                  : Default (H.263)
Codec ID                                 : XVID
Codec ID/Hint                            : XviD
Duration                                 : 1h 42mn
Bit rate                                 : 800 Kbps
Width                                    : 560 pixels
Height                                   : 304 pixels
Display aspect ratio                     : 1.85:1
Frame rate                               : 23.976 fps
Color space                              : YUV
Chroma subsampling                       : 4:2:0
Bit depth                                : 8 bits
Scan type                                : Progressive
Compression mode                         : Lossy
Bits/(Pixel*Frame)                       : 0.196
Stream size                              : 586 MiB (84%)

Audio
ID                                       : 1
Format                                   : MPEG Audio
Format version                           : Version 1
Format profile                           : Layer 3
Mode                                     : Joint stereo
Mode extension                           : MS Stereo
Codec ID                                 : 55
Codec ID/Hint                            : MP3
Duration                                 : 1h 42mn
Bit rate mode                            : Variable
Bit rate                                 : 140 Kbps
Channel count                            : 2 channels
Sampling rate                            : 48.0 KHz
Compression mode                         : Lossy
Stream size                              : 99.7 MiB (14%)
Alignment                                : Aligned on interleaves
Interleave, duration                     : 24 ms (0.58 video frame)
Interleave, preload duration             : 129 ms
Writing library                          : LAME3.92
Encoding settings                        : -m j -V 4 -q 2 -lowpass 17.5 --abr 140


hour-of-the-pig.avi_0xtfvz.jpg

hour-of-the-pig.avi_0bmfaj.jpg

hour-of-the-pig.avi_07kcoy.jpg

hour-of-the-pig.avi_0t3dsn.jpg
 
hour-of-the-pig.avi_05hcfk.jpg

hour-of-the-pig.avi_0sdipo.jpg

hour-of-the-pig.avi_0fvcog.jpg

Hidden Content
You'll be able to see the hidden content once you thank this post.
  Thanks to original uploader.

Thanked by 1 Member:
tfxedv



0 user(s) are reading this topic

0 members, 0 guests, 0 anonymous users