Jump to content

Dobrodošli na Balkandownload.org
Tražite domaće knjige, exyu magazine, sinhronizirane crtane filmove, PC i ostale igre, strane i domaće filmove, dokumentarce, stranu i domaću muziku, itd. ? Ne morate tražiti dalje jer sve ćete to naći kod nas, uredno postavljeno i spremno za download. Osim toga registracijom možete sudjelovati u raznim postojećim temama na forumu, otvarati nove teme, sudjelovati u chatu i još mnogo toga. Ako već imaš otvoren račun, logiraj se ovde ,a ako želiš saznati zašto smo najbolji otvori novi račun i uverite se sami :)
Photo

The House Of Magic (2013 )


  • Please log in to reply
4 replies to this topic

#1
Tobacco Road

Tobacco Road

    The Warez GOD

  • Tobacco
  • PipPipPipPipPipPipPipPipPipPip
  • 17,654 posts
  • 127448 thanks
  • Locationscrls

The House Of Magic (2013) BDRIP XVID AC3-ACAB

 

castello.jpg

 

 

Please Login or Register to see this Hidden Content

 

Zanr: Animation | Adventure | Family
IMDB Rating: 6.4/10 from 153 users
Rezija: Jeremy Degruson, Ben Stassen
Glasovi: Cinda Adams, Grant George
 
Junak ove price je Grom, mladi napusteni macak koji u potrazi za sklonistem od oluje nailazi na najcudniju kucu ciji je vlasnik madjionicar...
 
Velicina: 1.37 GB
Video: AVi | 720 x 408 | 1 642 Kbps
Audio: English | AC3 | 640 Kbps
Trajanje: 1h 25mn
 
 
9lmhm3ra1uwfgi3w897.jpg
 
 
 
Download
Hidden Content
You'll be able to see the hidden content once you thank this post.


Kako skinuti nesto sa Balkandownload-a?

 

 

http://www.slideshare.net/bd4yu/kako-skidati-fajlove-sa-balkan-download-a

 

 

Kako da pronadjete zeljeni sadrzaj na forumu? 

 

 

http://www.balkandownload.org/topic/40428-kako-pronaci-zeljeni-sadrzaj-na-forumu/

 

Najmračniji krugovi pakla su rezervisani za one koji u vremenima moralne krize ostanu neutralni i suzdržani -Dante Alighieri


Thanked by 1 Member:
ttt021

#2
gale50950

gale50950

    Advanced Member

  • Uploader
  • PipPipPip
  • 863 posts
  • 1616 thanks

The House Of Magic 2013 1080p BluRay 6CH RARBG
 

 

au4D4hj.jpg
 

 

Please Login or Register to see this Hidden Content

 




Genres: Animation, Adventure, Family
Format: MPEG-4 (Mp4)
File Size: 1.60GB
Resolution: 1920×1080
Runtime: 01:25:28
Language: English




beMKtc4.jpg




Hidden Content
You'll be able to see the hidden content once you thank this post.

 

 



Thanked by 1 Member:
ttt021

#3
MaliGrizeBeton

MaliGrizeBeton

    Silver Member

  • Members
  • PipPipPipPipPip
  • 2,524 posts
  • 4008 thanks

The House Of Magic (2013) + Prevod

BDRip.XviD.MP3-RARBG_BDRip
 
GPX9Ccn.jpg
 
8ctow7fie4nm8w1cpnt.jpg
 
 [info]

Please Login or Register to see this Hidden Content

 
Malo i napušteno mače tokom velike oluje pronalazi sklonište u najčudnijoj mogućoj kući, čiji je vlasnik ostarjeli mađioničar. U kući se nalazi veliki broj neobičnih aparata i živopisnih stvorenja. Nisu svi obradovani što vide pridošlicu, pa tako Zeka i Miš kuju zavjeru da izbace maleno mače na ulicu. Stvari postaju još gore kada stari mađioničar ode u bolnicu, a njegov pohlepni nećak shvata da ima priliku da dobro zaradi tako što će prodati kuću. Naš mali junak je odlučan da sebi izbori mjesto u neobičnom društvu, pa pomaže otkačenom mađioničarevom pomoćniku u borbi za spas svog novog doma...
 
 [download]

Hidden Content
You'll be able to see the hidden content once you thank this post.



Thanked by 1 Member:
ttt021

#4
Madball

Madball

    Bronze Member

  • Members
  • PipPipPipPip
  • 2,008 posts
  • 4228 thanks

The House Of Magic (2013) BDRip XviD MP3-RARBG+Prevod

the-house-of-magic-2013.jpg

Please Login or Register to see this Hidden Content



the-house-of-magic-2013-.jpg

Info:
Format                                   : AVI
Format/Info                              : Audio Video Interleave
File size                                : 856 MiB
Duration                                 : 1h 25mn
Overall bit rate                         : 1 400 Kbps
Movie name                               : The.House.Of.Magic.2013.BDRip.XviD.MP3-RARBG
Writing library                          : VirtualDub build 35491/release


Video
ID                                       : 0
Format                                   : MPEG-4 Visual
Format profile                           : [email protected]
Format settings, BVOP                    : No
Format settings, QPel                    : No
Format settings, GMC                     : No warppoints
Format settings, Matrix                  : Default (H.263)
Codec ID                                 : XVID
Codec ID/Hint                            : XviD
Duration                                 : 1h 25mn
Bit rate                                 : 1 195 Kbps
Width                                    : 720 pixels
Height                                   : 408 pixels
Display aspect ratio                     : 16:9
Frame rate                               : 24.000 fps
Color space                              : YUV
Chroma subsampling                       : 4:2:0
Bit depth                                : 8 bits
Scan type                                : Progressive
Compression mode                         : Lossy
Bits/(Pixel*Frame)                       : 0.170
Stream size                              : 731 MiB (85%)
Writing library                          : Lavc55.55.104

Audio
ID                                       : 1
Format                                   : MPEG Audio
Format version                           : Version 1
Format profile                           : Layer 3
Mode                                     : Joint stereo
Mode extension                           : MS Stereo
Codec ID                                 : 55
Codec ID/Hint                            : MP3
Duration                                 : 1h 25mn
Bit rate mode                            : Constant
Bit rate                                 : 192 Kbps
Channel(s)                               : 2 channels
Sampling rate                            : 48.0 KHz
Compression mode                         : Lossy
Stream size                              : 117 MiB (14%)
Alignment                                : Aligned on interleaves
Interleave, duration                     : 24 ms (0.58 video frame)
Interleave, preload duration             : 504 ms
Writing library                          : LAME3.99.CÁA8



filecore.jpg
Hidden Content
You'll be able to see the hidden content once you thank this post.


uploaded.jpg
Hidden Content
You'll be able to see the hidden content once you thank this post.

Edited by Madball, 04 September 2014 - 12:20.

image.gif


#5
Madball

Madball

    Bronze Member

  • Members
  • PipPipPipPip
  • 2,008 posts
  • 4228 thanks

Novi linkovi u mom postu.


image.gif





0 user(s) are reading this topic

0 members, 0 guests, 0 anonymous users