Jump to content

Dobrodošli na Balkandownload.org
Tražite domaće knjige, exyu magazine, sinhronizirane crtane filmove, PC i ostale igre, strane i domaće filmove, dokumentarce, stranu i domaću muziku, itd. ? Ne morate tražiti dalje jer sve ćete to naći kod nas, uredno postavljeno i spremno za download. Osim toga registracijom možete sudjelovati u raznim postojećim temama na forumu, otvarati nove teme, sudjelovati u chatu i još mnogo toga. Ako već imaš otvoren račun, logiraj se ovde ,a ako želiš saznati zašto smo najbolji otvori novi račun i uverite se sami :)
Photo

Children of the Dog Star (1984)

1984

  • Please log in to reply
1 reply to this topic

#1
LEMONZOO

LEMONZOO

    Advanced Member

  • VIP
  • PipPipPip
  • 737 posts
  • 2902 thanks
  • LocationGavran Mahala

Children of the Dog Star (1984)

childrenofthedogs1nla6.jpg
 

Please Login or Register to see this Hidden Content



On holiday at her uncle's farm in New Zealand, Gretchen befriends Ronny, a Maori boy with a troubled city past, and Bevis the birdwatching son of a loathed developer. Tension is already high as the developer wants to buy and drain a local swamp for a housing estate, but Ronny's uncle is the guardian of a traditional Maori tapu (taboo/curse) upon the swamp. The swamp must not be touched—something sleeps there that must not be awakened. Something unnatural.
Gradually, the children discover the pieces of an ancient alien space probe named Kolob. During the series they assemble the missing parts and strange things start to happen. The probe was one of three sent to earth to educate the human race in science. In the end a communication link is set up with the star Sirius B, from where the probe came, and the aliens tell them they should not have interfered.
 

Format : AVI
Format/Info : Audio Video Interleave
File size : 286 MiB
Duration : 24mn 1s
Overall bit rate : 1 666 Kbps

Video
ID : 0
Format : MPEG-4 Visual
Format settings, BVOP : 1
Format settings, QPel : No
Format settings, GMC : No warppoints
Format settings, Matrix : Default (H.263)
Muxing mode : Packed bitstream
Codec ID : DX50
Codec ID/Hint : DivX 5
Duration : 24mn 1s
Bit rate : 1 400 Kbps
Width : 704 pixels
Height : 576 pixels
Display aspect ratio : 1.222
Frame rate : 25.000 fps
Standard : PAL
Color space : YUV
Chroma subsampling : 4:2:0
Bit depth : 8 bits
Scan type : Progressive
Compression mode : Lossy
Bits/(Pixel*Frame) : 0.138
Stream size : 241 MiB (84%)
Title : Video
Writing library : DivX 6.8.5 (UTC 2009-08-20)

Audio
ID : 1
Format : AC-3
Format/Info : Audio Coding 3
Mode extension : CM (complete main)
Format settings, Endianness : Big
Codec ID : 2000
Duration : 24mn 1s
Bit rate mode : Constant
Bit rate : 256 Kbps
Channel(s) : 2 channels
Channel positions : Front: L R
Sampling rate : 48.0 KHz
Bit depth : 16 bits
Compression mode : Lossy
Stream size : 44.0 MiB (15%)
Alignment : Split accross interleaves
Interleave, duration : 40 ms (1.00 video frame)
Interleave, preload duration : 500 ms
Title : Audio



childrenofthedogstarf8l.jpg

childrenofthedogstare19.jpg

childrenofthedogstarepi.jpg

childrenofthedogstarepi.jpg


Hidden Content
You'll be able to see the hidden content once you thank this post.


Edited by LEMONZOO, 10 January 2015 - 17:41.


Thanked by 1 Member:
zoltan

#2
LEMONZOO

LEMONZOO

    Advanced Member

  • VIP
  • PipPipPip
  • 737 posts
  • 2902 thanks
  • LocationGavran Mahala

Zamijenjeni neispravni linkovi.







Also tagged with one or more of these keywords: 1984

0 user(s) are reading this topic

0 members, 0 guests, 0 anonymous users