Jump to content

Dobrodošli na Balkandownload.org
Tražite domaće knjige, exyu magazine, sinhronizirane crtane filmove, PC i ostale igre, strane i domaće filmove, dokumentarce, stranu i domaću muziku, itd. ? Ne morate tražiti dalje jer sve ćete to naći kod nas, uredno postavljeno i spremno za download. Osim toga registracijom možete sudjelovati u raznim postojećim temama na forumu, otvarati nove teme, sudjelovati u chatu i još mnogo toga. Ako već imaš otvoren račun, logiraj se ovde ,a ako želiš saznati zašto smo najbolji otvori novi račun i uverite se sami :)
Photo

A Long Way Down (2014)


  • Please log in to reply
1 reply to this topic

#1
Tobacco Road

Tobacco Road

    The Warez GOD

  • Tobacco
  • PipPipPipPipPipPipPipPipPipPip
  • 17,633 posts
  • 123456 thanks
  • Locationscrls

A Long Way Down (2014) HDRip X264-PLAYNOW

 

 

2opaqvu5lqc5ikiumcsk.jpg

 

 

 

 

Please Login or Register to see this Hidden Content

 

 

Rezija: Pascal Chaumeil
Uloge: Imogen Poots, Aaron Paul, Rosamund Pike
 
Prica o cetvoro ljudi koji se srecu na novogodisnje vece i formiraju surogat porodicu kako bi jedni drugima pomogli da prebrode zivotne teskoce i probleme.
 
 
Izvor: iTunes
Velicina: 1.35 GB
Zanr: Comedy | Drama
Video: x264 | 720×300 | 1869 Kbps
Audio: English | AAC | 48.0 KHz
 
rq8j9xpoogmt6e8imfn.jpg
 
 
 
Download
Hidden Content
You'll be able to see the hidden content once you thank this post.


Kako skinuti nesto sa Balkandownload-a?

 

 

http://www.slideshare.net/bd4yu/kako-skidati-fajlove-sa-balkan-download-a

 

 

Kako da pronadjete zeljeni sadrzaj na forumu? 

 

 

http://www.balkandownload.org/topic/40428-kako-pronaci-zeljeni-sadrzaj-na-forumu/

 

Najmračniji krugovi pakla su rezervisani za one koji u vremenima moralne krize ostanu neutralni i suzdržani -Dante Alighieri


#2
Madball

Madball

    Bronze Member

  • Members
  • PipPipPipPip
  • 2,008 posts
  • 4181 thanks

A Long Way Down (2014) HDRip XviD MP3-RARBG

alongwaydown2014.jpg

Please Login or Register to see this Hidden Content



a-long-way-down-2014-hdr.jpg

Release date: 20 March 2014
Language: English

Info:
Format : AVI
Format/Info : Audio Video Interleave
File size : 962 MiB
Duration : 1h 35mn
Overall bit rate : 1 403 Kbps
Writing library : VirtualDub build 35491/release

Video
ID : 0
Format : MPEG-4 Visual
Format profile : [email protected]
Format settings, BVOP : No
Format settings, QPel : No
Format settings, GMC : No warppoints
Format settings, Matrix : Default (H.263)
Codec ID : XVID
Codec ID/Hint : XviD
Duration : 1h 35mn
Bit rate : 1 198 Kbps
Width : 720 pixels
Height : 304 pixels
Display aspect ratio : 2.35:1
Frame rate : 23.976 fps
Color space : YUV
Chroma subsampling : 4:2:0
Bit depth : 8 bits
Scan type : Progressive
Compression mode : Lossy
Bits/(Pixel*Frame) : 0.228
Stream size : 822 MiB (85%)
Writing library : Lavc55.61.100

Audio
ID : 1
Format : MPEG Audio
Format version : Version 1
Format profile : Layer 3
Mode : Joint stereo
Mode extension : MS Stereo
Codec ID : 55
Codec ID/Hint : MP3
Duration : 1h 35mn
Bit rate mode : Constant
Bit rate : 192 Kbps
Channel(s) : 2 channels
Sampling rate : 48.0 KHz
Compression mode : Lossy
Stream size : 132 MiB (14%)
Alignment : Aligned on interleaves
Interleave, duration : 24 ms (0.58 video frame)
Interleave, preload duration : 504 ms



kingfiles.jpg
Hidden Content
You'll be able to see the hidden content once you thank this post.


uploadrocket.jpg
Hidden Content
You'll be able to see the hidden content once you thank this post.


uploaded.jpg
Hidden Content
You'll be able to see the hidden content once you thank this post.


4-up-files.jpg
Hidden Content
You'll be able to see the hidden content once you thank this post.

image.gif





0 user(s) are reading this topic

0 members, 0 guests, 0 anonymous users