Jump to content

Dobrodošli na Balkandownload.org
Tražite domaće knjige, exyu magazine, sinhronizirane crtane filmove, PC i ostale igre, strane i domaće filmove, dokumentarce, stranu i domaću muziku, itd. ? Ne morate tražiti dalje jer sve ćete to naći kod nas, uredno postavljeno i spremno za download. Osim toga registracijom možete sudjelovati u raznim postojećim temama na forumu, otvarati nove teme, sudjelovati u chatu i još mnogo toga. Ako već imaš otvoren račun, logiraj se ovde ,a ako želiš saznati zašto smo najbolji otvori novi račun i uverite se sami :)
Photo

Blended (2014)


  • Please log in to reply
4 replies to this topic

#1
Madball

Madball

    Bronze Member

  • Members
  • PipPipPipPip
  • 2,008 posts
  • 4203 thanks

Blended (2014) CAM NEW VIDEO XViD-EVE

blended2014.jpg

Please Login or Register to see this Hidden Content



blended-2014-cam-new-vid.jpg

RELEASE DATE...- 18 April 2014 (USA)                          
LANGUAGE.......- English                                       
SUBTiTLES......- hd foriegn subs                            
RUNTiME........- 1h 50m                                     
SOURCE.........- 720p italian video/ eng audio
ViDEO CODEC....- XVID                               
ViDEO BiTRATE..- 1494 kbps                                
RESOLUTiON.....- 720 x 368                             
FRAMERATE......- 29.970 fps                           
SETTiNGS.......- AVI                
AUDiO CODEC....- AC3 2 chnls                          
AUDiO BiTRATE..- 224 kbps                           
FiLE SiZE......- 1.33 GB                          
ENCODER........- ADAM



kingfiles.jpg
Hidden Content
You'll be able to see the hidden content once you thank this post.


uploadrocket.jpg
Hidden Content
You'll be able to see the hidden content once you thank this post.


uploaded.jpg
Hidden Content
You'll be able to see the hidden content once you thank this post.


4-up-files.jpg
Hidden Content
You'll be able to see the hidden content once you thank this post.

image.gif


#2
Tobacco Road

Tobacco Road

    The Warez GOD

  • Tobacco
  • PipPipPipPipPipPipPipPipPipPip
  • 17,645 posts
  • 125611 thanks
  • Locationscrls

Blended (2014) HDRip HC XviD MP3-RBG

 

 

108677nrn.jpg

 

 

Please Login or Register to see this Hidden Content

 

 

Rezija: Frank Coraci
Scenario: Ivan Menchell, Clare Sera
Uloge: Adam Sandler, Drew Barrymore, Wendi McLendon-Covey
 
 
Dvoje glavnih junaka su se upoznali na očajnom sastanku naslepo, Posle utiska koji su ostavili jedno na drugo, nisu srećni kada shvate da su se našli u istom porodičnom odmaralištu. Ali, tu počinju da osećaju privlačnost jedno prema drugom, a njihova veza čini i njegovu i njenu decu srećnim.
 
 
01:56:57 | 720x384 @ 1405 kb/s | 23.98 fps® | mp3, 48000 Hz, stereo, 192 kb/s | 1.15 GiB
 
Zanr: Komedija
Subs: Hardcoded - Asian
 
Blended.2014.HDRip.HC.XviD.MP3-RBG_s.jpg
 
 
 
Download
Hidden Content
You'll be able to see the hidden content once you thank this post.

Kako skinuti nesto sa Balkandownload-a?

 

 

http://www.slideshare.net/bd4yu/kako-skidati-fajlove-sa-balkan-download-a

 

 

Kako da pronadjete zeljeni sadrzaj na forumu? 

 

 

http://www.balkandownload.org/topic/40428-kako-pronaci-zeljeni-sadrzaj-na-forumu/

 

Najmračniji krugovi pakla su rezervisani za one koji u vremenima moralne krize ostanu neutralni i suzdržani -Dante Alighieri


Thanked by 1 Member:
mbojic

#3
Madball

Madball

    Bronze Member

  • Members
  • PipPipPipPip
  • 2,008 posts
  • 4203 thanks

Blended (2014) Webrip x264 AC3-TiTAN

blended2014.jpg

Please Login or Register to see this Hidden Content



blended-2014-webrip-x264.jpg

Perfect copy other than HC Asian subs.. Enjoy

General

Format                                   : Matroska
Format version                           : Version 2
File size                                : 1.59 GiB
Duration                                 : 1h 56mn
Overall bit rate mode                    : Variable
Overall bit rate                         : 1 946 Kbps
Encoded date                             : UTC 2014-06-08 03:33:02
Writing application                      : mkvmerge v6.9.1 ('Blue Panther') 32bit built on Apr 18 2014 18:15:44
Writing library                          : libebml v1.3.0 + libmatroska v1.4.1

Video
ID                                       : 1
Format                                   : AVC
Format/Info                              : Advanced Video Codec
Format profile                           : [email protected]
Format settings, CABAC                   : Yes
Format settings, ReFrames                : 3 frames
Codec ID                                 : V_MPEG4/ISO/AVC
Duration                                 : 1h 56mn
Bit rate mode                            : Variable
Bit rate                                 : 1 715 Kbps
Maximum bit rate                         : 40.0 Mbps
Width                                    : 720 pixels
Height                                   : 384 pixels
Display aspect ratio                     : 1.85:1
Frame rate mode                          : Constant
Frame rate                               : 23.976 fps
Color space                              : YUV
Chroma subsampling                       : 4:2:0
Bit depth                                : 8 bits
Scan type                                : Progressive
Bits/(Pixel*Frame)                       : 0.259
Stream size                              : 1.40 GiB (88%)
Writing library                          : x264 core 142 r2431 ac76440
Default                                  : Yes
Forced                                   : No
Color primaries                          : BT.709
Transfer characteristics                 : BT.709
Matrix coefficients                      : BT.709

Audio
ID                                       : 2
Format                                   : AC-3
Format/Info                              : Audio Coding 3
Mode extension                           : CM (complete main)
Format settings, Endianness              : Big
Codec ID                                 : A_AC3
Duration                                 : 1h 56mn
Bit rate mode                            : Constant
Bit rate                                 : 192 Kbps
Channel(s)                               : 2 channels
Channel positions                        : Front: L R
Sampling rate                            : 48.0 KHz
Bit depth                                : 16 bits
Compression mode                         : Lossy
Stream size                              : 161 MiB (10%)
Default                                  : Yes
Forced                                   : No



kingfiles.jpg
Hidden Content
You'll be able to see the hidden content once you thank this post.


uploadrocket.jpg
Hidden Content
You'll be able to see the hidden content once you thank this post.


uploaded.jpg
Hidden Content
You'll be able to see the hidden content once you thank this post.


4-up-files.jpg
Hidden Content
You'll be able to see the hidden content once you thank this post.

image.gif


#4
Tobacco Road

Tobacco Road

    The Warez GOD

  • Tobacco
  • PipPipPipPipPipPipPipPipPipPip
  • 17,645 posts
  • 125611 thanks
  • Locationscrls

Blended (2014) HDRip XviD AC3-EVO

 

73997334669031378774.jpg

 

 

 

Download

Hidden Content
You'll be able to see the hidden content once you thank this post.


Kako skinuti nesto sa Balkandownload-a?

 

 

http://www.slideshare.net/bd4yu/kako-skidati-fajlove-sa-balkan-download-a

 

 

Kako da pronadjete zeljeni sadrzaj na forumu? 

 

 

http://www.balkandownload.org/topic/40428-kako-pronaci-zeljeni-sadrzaj-na-forumu/

 

Najmračniji krugovi pakla su rezervisani za one koji u vremenima moralne krize ostanu neutralni i suzdržani -Dante Alighieri


#5
ParnY

ParnY

    Bronze Member

  • Administrator
  • 1,493 posts
  • 6286 thanks
Blended 2014 HDRip x264 AC3-FooKaS

9qlFkl.jpg

kYl8I6.png

LNbFs5.jpg






Download:

Single link:

Hidden Content
You'll be able to see the hidden content once you thank this post.

>>> SeedBox & RDP slots | 350GB (SB) / 400GB (RDP) HDD | 1Gbps | Unmetered | 8€ (SB) / 10€ (RDP) per month <<<





0 user(s) are reading this topic

0 members, 0 guests, 0 anonymous users