Jump to content

Dobrodošli na Balkandownload.org
Tražite domaće knjige, exyu magazine, sinhronizirane crtane filmove, PC i ostale igre, strane i domaće filmove, dokumentarce, stranu i domaću muziku, itd. ? Ne morate tražiti dalje jer sve ćete to naći kod nas, uredno postavljeno i spremno za download. Osim toga registracijom možete sudjelovati u raznim postojećim temama na forumu, otvarati nove teme, sudjelovati u chatu i još mnogo toga. Ako već imaš otvoren račun, logiraj se ovde ,a ako želiš saznati zašto smo najbolji otvori novi račun i uverite se sami :)
Photo

Zona Zamfirova (2002)


3 replies to this topic

#1
Zoran_

Zoran_

    Gold Member

  • VIP
  • PipPipPipPipPipPip
  • 5,983 posts
  • 149049 thanks

Zona Zamfirova (2002)


ZonaZamfirova2002.png

imdb6.jpg
 

Please Login or Register to see this Hidden Content

Zona Zamfirova predstavlja dirljivu ljubavnu pricu izmedu pripadnika razlicitih društvenih slojeva, Maneta (Vojin Cetkovic) i bogataške cerke Zone (Katarina Radivojevic), smeštenu u ambijent starog Niša s kraja 19. veka. Veštim zapletima oslikan je neponovljivi južnjacki mentalitet, duh i temperament, te skladno oživljena atmosfera davno prohujalih vremena, koja su ostavila trag i na današnjicu. Jedan od najambicioznijih filmskih projekata nadmašio je sva ocekivanja i postao udarna tema u filmskoj industriji, komedija koju svi kriticari hvale.


Molbe za moje linkove, šaljite na PP.

 

Zabranjeno je kopiranje mojih linkova,reupload i postavljanje na druge forume!


Thanked by 206 Members:

#2
Guest_*offline*_*

Guest_*offline*_*
  • Guests
  • thanks

Zona Zamfirova (2002).PAL.DVDR.(DVD5)

 

60JuWV5.jpg

 


Zona Zamfirova je srpski film iz 2002. koji predstavlja ljubavnu priču između pripadnika različitih društvenih slojeva, kujundžije Maneta (Vojin Ćetković) i bogataške ćerke Zone (Katarina Radivojević), smeštenu u ambijent Niša s kraja 19. veka. Zamišljen veoma ambiciozno, film je gledanošću i zaradom prevazišao sva očekivanja i, po nekim izvorima, postao najgledaniji srpski film svih vremena. Film je snimljen u formatu 16:9, a posebno za televiziju je urađena i kopija filma sa formatom 4:3. Film odlikuje 5.1 Dolby Digital zvuk.
DVD izdanje filma je izašlo 2003. godine. Na njemu se nalaze posebni dodaci, kao što su: izbor scena, doživljaji sa snimanja, trejler.
Film obiluje južnjačkom starogradskom muzikom, koja je objavljena na dva kompakt-diska: Zonina muzika i Manetova muzika. Bonus sadrži oba diska u mp3 formatu (44 MHz, 128 bit/s)

Izvorni naslov: Zona Zamfirova
Žanr: komedija
Režija: Zdravko Šotra
Scenario: Zdravko Šotra
Producent: Miroslav Mitić
Uloge: Katarina Radivojević, Vojin Ćetković, Dragan Nikolić, Milena Dravić, Nikola Đuričko, Radmila Živković, Ružica Sokić, Svetlana Bojković, Sloboda Mićalović, Nebojša Ilić, Branimir Brstina, Danica Maksimović, Jelica Sretenović, Ana Franić, Predrag Ejdus, Bilja Krstić, Tihomir Stanić
Muzika: Nenad Milosavljević
Scenografija: Miodrag Nikolić
Izdavačka kuća: Dream Company
Godina: 2002
Trajanje: 95 min
Zemlja: Srbija
Jezik: srpski
Titlovi: hrvatski, engleski, slovenski, makedonski

Source: DVD5
Ton: Dolby Digital 5.1
Video: PAL 16:9 (720x576)
Video Codec: MPEG-2
FPS: 50.000
Bitrate: 4344 kbps
Audio: AC3, 48000 Hz
Bitrate: 448 kbps, 6 chnls (3/2.1)
Release Size: 4,36 GB
Menu: Yes

Bonus:Muzika iz filma
Zonina muzika
01. Nane
02. Zona Zamfirova
03. Pobegulja
04. Stanika mi bolna
05. Gde ima voda studena, Radule
06. Petlovi
07. Puče puška
08. Ne goni konja more momiče
09. Nane
10. Stepenice
11. Premenuvanje
12. Pogledi
13. Zonina šetnja
14. Krađa mlade
15. Crkva
16. Udvaranje
17. Zone
18. Intro
Manetova muzika
01. Zona Zamfirova
02. Pobegulja
03. Stanika mi bolna
04. Gde ima voda studena Radule
05. Petlovi
06. Puče puška
07. Ne goni konja mori momiče
08. Duj, duj
09. Slavuj pile
10. Svrljiška Rumenka
11. Fati se kolo
12. Šareno oro
13. Moja je Lena
14. Leskovački Čačak
15. Jelke tamničarke
16. Kalčino oro
17. Kad mlada daje
18. Srđan čoček
19. Petlovi

 

DOWNLOAD :

 

LINKOVI SE MOGU KOMBINOVATI 

 

bjJCcDS.png
 
Hidden Content
You'll be able to see the hidden content once you thank this post.
 
vWNtf0E.png
 
Hidden Content
You'll be able to see the hidden content once you thank this post.
 
LLmYmY8.png
 
Hidden Content
You'll be able to see the hidden content once you thank this post.
 
Aon3ZXg.png
 
Hidden Content
You'll be able to see the hidden content once you thank this post.


Thanked by 123 Members:

#3
Zoran_

Zoran_

    Gold Member

  • VIP
  • PipPipPipPipPipPip
  • 5,983 posts
  • 149049 thanks
Zona Zamfirova (2002) 
 
 
R7hImZo.png
 
Su6Ksi6.jpg
 

Please Login or Register to see this Hidden Content

 
Zona Zamfirova predstavlja dirljivu ljubavnu pricu izmedu pripadnika razlicitih društvenih slojeva, Maneta (Vojin Cetkovic) i bogataške cerke Zone (Katarina Radivojevic), smeštenu u ambijent starog Niša s kraja 19. veka. Veštim zapletima oslikan je neponovljivi južnjacki mentalitet, duh i temperament, te skladno oživljena atmosfera davno prohujalih vremena, koja su ostavila trag i na današnjicu. Jedan od najambicioznijih filmskih projekata nadmašio je sva ocekivanja i postao udarna tema u filmskoj industriji, komedija koju svi kriticari hvale.
 
yen1ol765sy.png
 
9WqiEEE.gif
 
ABOR4eQ.jpg
 
Oets6ur.gif
 
Zona Zamfirova (2002) DVDRip.x264.mkv
 
SFYUbuP.jpg
 
Hidden Content
You'll be able to see the hidden content once you thank this post.

Molbe za moje linkove, šaljite na PP.

 

Zabranjeno je kopiranje mojih linkova,reupload i postavljanje na druge forume!


Thanked by 78 Members:

#4
Wolf 13

Wolf 13

    Advanced Member

  • Members
  • PipPipPip
  • 426 posts
  • 33320 thanks
Zona Zamfirova (2002) DVDrip AC3 5.1 x264 by Wolf
(MKV)
 
joHpAM3.jpg
 

Please Login or Register to see this Hidden Content

 

General
Unique ID                   : 270752990448840521753336158090484391084 (0xCBB121123033F44983746A93CC761CAC)
Complete name               : Zona Zamfirova (2002) DVDrip AC3 5.1 x264 by Wolf.mkv
Format                      : Matroska
Format version              : Version 4 / Version 2
File size                   : 1.17 GiB
Duration                    : 1 h 35 min
Overall bit rate            : 1 757 kb/s
Encoded date                : UTC 2018-12-02 21:19:39 / UTC 2018-12-02T15:19:23Z
Writing application         : mkvmerge v29.0.0 ('Like It Or Not') 64-bit
Writing library             : libebml v1.3.6 + libmatroska v1.4.9 / Lavf57.7.2
 
Video
ID                          : 1
Format                      : AVC
Format/Info                 : Advanced Video Codec
Format profile              : [email protected]
Format settings             : CABAC / 8 Ref Frames
Format settings, CABAC      : Yes
Format settings, ReFrames   : 8 frames
Codec ID                    : V_MPEG4/ISO/AVC
Duration                    : 1 h 35 min
Bit rate                    : 1 500 kb/s
Width                       : 718 pixels
Height                      : 576 pixels
Display aspect ratio        : 16:9
Frame rate mode             : Constant
Frame rate                  : 25.000 FPS
Color space                 : YUV
Chroma subsampling          : 4:2:0
Bit depth                   : 8 bits
Scan type                   : Progressive
Bits/(Pixel*Frame)          : 0.145
Stream size                 : 998 MiB (83%)
Title                       : Zona Zamfirova (2002)
Writing library             : x264 core 155 r2901 7d0ff22
Encoding settings           : cabac=1 / ref=8 / deblock=1:-1:-1 / analyse=0x3:0x133 / me=umh / subme=9 / psy=1 / psy_rd=1.00:0.15 / mixed_ref=1 / me_range=16 / chroma_me=1 / trellis=2 / 8x8dct=1 / cqm=0 / deadzone=21,11 / fast_pskip=1 / chroma_qp_offset=-3 / threads=6 / lookahead_threads=1 / sliced_threads=0 / nr=0 / decimate=1 / interlaced=0 / bluray_compat=0 / constrained_intra=0 / bframes=3 / b_pyramid=2 / b_adapt=2 / b_bias=0 / direct=3 / weightb=1 / open_gop=0 / weightp=2 / keyint=250 / keyint_min=25 / scenecut=40 / intra_refresh=0 / rc_lookahead=60 / rc=2pass / mbtree=1 / bitrate=1500 / ratetol=1.0 / qcomp=0.60 / qpmin=0 / qpmax=69 / qpstep=4 / cplxblur=20.0 / qblur=0.5 / vbv_maxrate=300000 / vbv_bufsize=300000 / nal_hrd=none / filler=0 / ip_ratio=1.40 / aq=1:1.00
Language                    : Serbian
Default                     : Yes
Forced                      : No
Color range                 : Limited
Color primaries             : BT.601 PAL
Transfer characteristics    : BT.709
Matrix coefficients         : BT.601
Statistics Tags Issue       : mkvmerge v29.0.0 ('Like It Or Not') 64-bit 2018-12-02 21:19:39 / mkvmerge v29.0.0 ('Like It Or Not') 64-bit 2018-12-02 21:19:39 / UTC 2018-12-02T15:19:23Z
FromStats_BitRate           : 1499975
FromStats_Duration          : 01:35:11.000000000
FromStats_FrameCount        : 142775
FromStats_StreamSize        : 1070794940
 
Audio
ID                          : 2
Format                      : AC-3
Format/Info                 : Audio Coding 3
Codec ID                    : A_AC3
Duration                    : 1 h 35 min
Bit rate mode               : Constant
Bit rate                    : 256 kb/s
Channel(s)                  : 6 channels
Channel positions           : Front: L C R, Side: L R, LFE
Sampling rate               : 48.0 kHz
Frame rate                  : 31.250 FPS (1536 SPF)
Bit depth                   : 16 bits
Compression mode            : Lossy
Delay relative to video     : 4 s 960 ms
Stream size                 : 174 MiB (15%)
Title                       : Zona Zamfirova (2002)
Language                    : Serbian
Service kind                : Complete Main
Default                     : Yes
Forced                      : No
Statistics Tags Issue       : mkvmerge v29.0.0 ('Like It Or Not') 64-bit 2018-12-02 21:19:39 / mkvmerge v29.0.0 ('Like It Or Not') 64-bit 2018-12-02 21:19:39 / UTC 2018-12-02T15:19:23Z
FromStats_BitRate           : 256000
FromStats_Duration          : 01:35:06.048000000
FromStats_FrameCount        : 178314
FromStats_StreamSize        : 182593536
 
epYscVA.png
Hidden Content
You'll be able to see the hidden content once you thank this post.
 
iunpNhE.png
I3TJetl.jpg


Thanked by 57 Members:
sduca , mackosopa , mzokitpm , legijalegija , bA4zjoh6F , dulonius , keops87 , Knindza , Ilijan , beograd1960' , runjaa , sazor , b50andi , bozamc , tijana_s , chefko , BranimirBarnak , Zenicanin , aca72 , simia007 , sanakabo , billypiton , Samurai13 , gogoxrogo , Nikkola , ara66 , mako , Chika_Miki , peterpan69 , savke79 , marili , rafael13 , tonisamja , internetcaffe , kbozic , TeodorM1976 , Homss , HDO42SD , rile1972 , danijeladanijel , TalijaA , Milfir , visnjavisnja , xection , iva17 , nikolapppp , danep , smisko0027 , iljeva990 , filipsacir , Ismet1968 , baneiv , Zelenac1 , zlaja67 , Gorolomac , misapop , krigerski



0 user(s) are reading this topic

0 members, 0 guests, 0 anonymous users