Jump to content

Dobrodošli na Balkandownload.org
Tražite domaće knjige, exyu magazine, sinhronizirane crtane filmove, PC i ostale igre, strane i domaće filmove, dokumentarce, stranu i domaću muziku, itd. ? Ne morate tražiti dalje jer sve ćete to naći kod nas, uredno postavljeno i spremno za download. Osim toga registracijom možete sudjelovati u raznim postojećim temama na forumu, otvarati nove teme, sudjelovati u chatu i još mnogo toga. Ako već imaš otvoren račun, logiraj se ovde ,a ako želiš saznati zašto smo najbolji otvori novi račun i uverite se sami :)
Photo

Pljacka Treceg rajha (2004)


2 replies to this topic

#1
Zoran_

Zoran_

    Gold Member

  • VIP
  • PipPipPipPipPipPip
  • 5,988 posts
  • 149576 thanks

Pljacka Treceg rajha (2004)


PljackaTrecegrajha2004.png

imdb6.jpg
 

Please Login or Register to see this Hidden Content

U prolece 1941. godine, kad je Hitler poceo da osvaja Evropu, u Beograd su navrli najbolji obijaci
i falsifikatori, medu njima i Glavonja i Kalauz. Oni su zavili u crno mnoge banke i znani su policiji širom Evrope. Glavonja (Dragan Nikolic) je inteligentan, poliglota i promišljen tip. Vreda ga kada ga zovu lopovom - on je nadahnuti obijac, spreman za velike poduhvate i ima vrlo razvijenu samosvest o svom umecu. Kalauz (Nikola Ðuricko) je njegova suprotnost. Pohlepan je na sve što mu zasija pred ocima, sklon je usputnim sitnim kradama, dosta je skromne pameti i - "glup", kako to za njega kaže njegov ortak. Njegovom krivicom "pali" su na prvom poduhvatu u Beogradu.Prica pocinje hapšenjem Glavonje i Kalauza nakon jedne njihove operacije. Pošto sebe smatraju elitom medu zatvorenicima, nisu mogli da jedu zatvorsku hranu, pa su sebi dozvolili da se sami posluže oficirskom hranom, zbog cega su završili u samici.


Molbe za moje linkove, šaljite na PP.

 

Zabranjeno je kopiranje mojih linkova,reupload i postavljanje na druge forume!


Thanked by 103 Members:

#2
Wolf 13

Wolf 13

    Advanced Member

  • Members
  • PipPipPip
  • 426 posts
  • 33538 thanks
Pljacka Treceg rajha (2004) DVDrip AC3 5.1 x264 by Wolf
(MKV) HQ
 
maxresdefault.jpg
 

Please Login or Register to see this Hidden Content

 

General
Unique ID                   : 246673028430644951293292012518358696571 (0xB9937F4805C34D3E4EAB35E2E890C27B)
Complete name               : Pljacka Treceg rajha (2004) DVDrip AC3 5.1 x264 by Wolf.mkv
Format                      : Matroska
Format version              : Version 4
File size                   : 1.23 GiB
Duration                    : 1 h 40 min
Overall bit rate            : 1 758 kb/s
Encoded date                : UTC 2019-01-15 23:07:10 / UTC 2019-01-15T19:14:22Z
Writing application         : mkvmerge v30.1.0 ('Forever And More') 64-bit
Writing library             : libebml v1.3.6 + libmatroska v1.4.9 / Lavf57.7.2
 
Video
ID                          : 1
Format                      : AVC
Format/Info                 : Advanced Video Codec
Format profile              : [email protected]
Format settings             : CABAC / 8 Ref Frames
Format settings, CABAC      : Yes
Format settings, ReFrames   : 8 frames
Codec ID                    : V_MPEG4/ISO/AVC
Duration                    : 1 h 40 min
Bit rate                    : 1 500 kb/s
Width                       : 702 pixels
Height                      : 432 pixels
Display aspect ratio        : 16:9
Original display aspect rat : 1.733
Frame rate mode             : Constant
Frame rate                  : 25.000 FPS
Color space                 : YUV
Chroma subsampling          : 4:2:0
Bit depth                   : 8 bits
Scan type                   : Progressive
Bits/(Pixel*Frame)          : 0.198
Stream size                 : 1.03 GiB (83%)
Title                       : Pljacka Treceg rajha (2004)
Writing library             : x264 core 155 r2901 7d0ff22
Encoding settings           : cabac=1 / ref=8 / deblock=1:-1:-1 / analyse=0x3:0x133 / me=umh / subme=9 / psy=1 / psy_rd=1.00:0.15 / mixed_ref=1 / me_range=16 / chroma_me=1 / trellis=2 / 8x8dct=1 / cqm=0 / deadzone=21,11 / fast_pskip=1 / chroma_qp_offset=-3 / threads=6 / lookahead_threads=1 / sliced_threads=0 / nr=0 / decimate=1 / interlaced=0 / bluray_compat=0 / constrained_intra=0 / bframes=3 / b_pyramid=2 / b_adapt=2 / b_bias=0 / direct=3 / weightb=1 / open_gop=0 / weightp=2 / keyint=250 / keyint_min=25 / scenecut=40 / intra_refresh=0 / rc_lookahead=60 / rc=2pass / mbtree=1 / bitrate=1500 / ratetol=1.0 / qcomp=0.60 / qpmin=0 / qpmax=69 / qpstep=4 / cplxblur=20.0 / qblur=0.5 / vbv_maxrate=300000 / vbv_bufsize=300000 / nal_hrd=none / filler=0 / ip_ratio=1.40 / aq=1:1.00
Language                    : Serbian
Default                     : Yes
Forced                      : No
Color range                 : Limited
Color primaries             : BT.601 PAL
Transfer characteristics    : BT.709
Matrix coefficients         : BT.601
Statistics Tags Issue       : mkvmerge v30.1.0 ('Forever And More') 64-bit 2019-01-15 23:07:10 / mkvmerge v30.1.0 ('Forever And More') 64-bit 2019-01-15 23:07:10 / UTC 2019-01-15T19:14:22Z
FromStats_BitRate           : 1500115
FromStats_Duration          : 01:40:06.000000000
FromStats_FrameCount        : 150150
FromStats_StreamSize        : 1126211529
 
Audio
ID                          : 2
Format                      : E-AC-3
Format/Info                 : Enhanced AC-3
Commercial name             : Dolby Digital Plus
Codec ID                    : A_EAC3
Duration                    : 1 h 40 min
Bit rate mode               : Constant
Bit rate                    : 256 kb/s
Channel(s)                  : 6 channels
Channel layout              : L R C LFE Ls Rs
Sampling rate               : 48.0 kHz
Frame rate                  : 31.250 FPS (1536 SPF)
Compression mode            : Lossy
Delay relative to video     : -5 ms
Stream size                 : 183 MiB (15%)
Title                       : Pljacka Treceg rajha (2004)
Language                    : Serbian
Service kind                : Complete Main
Default                     : Yes
Forced                      : No
Statistics Tags Issue       : mkvmerge v30.1.0 ('Forever And More') 64-bit 2019-01-15 23:07:10 / mkvmerge v30.1.0 ('Forever And More') 64-bit 2019-01-15 23:07:10 / UTC 2019-01-15T19:14:22Z
FromStats_BitRate           : 256000
FromStats_Duration          : 01:40:06.016000000
FromStats_FrameCount        : 187688
FromStats_StreamSize        : 192192512
 
Text
ID                          : 3
Format                      : UTF-8
Codec ID                    : S_TEXT/UTF8
Codec ID/Info               : UTF-8 Plain Text
Title                       : PLJACKA TRECEG RAJHA
Language                    : Serbian
Default                     : Yes
Forced                      : No
Statistics Tags Issue       : mkvmerge v30.1.0 ('Forever And More') 64-bit 2019-01-15 23:07:10 / mkvmerge v30.1.0 ('Forever And More') 64-bit 2019-01-15 23:07:10 / UTC 2019-01-15T19:14:22Z
FromStats_BitRate           : 17
FromStats_Duration          : 01:19:31.434000000
FromStats_FrameCount        : 314
FromStats_StreamSize        : 10388
 
epYscVA.png
Hidden Content
You'll be able to see the hidden content once you thank this post.
 
CX7vJLu.png
WiOZYzK.jpg

Edited by Wolf 13, 16 January 2019 - 16:28.


Thanked by 117 Members:

#3
Zoran_

Zoran_

    Gold Member

  • VIP
  • PipPipPipPipPipPip
  • 5,988 posts
  • 149576 thanks
Pljacka Treceg rajha (2004)
 
 
PljackaTrecegrajha2004.png
 
imdb6.jpg
 

Please Login or Register to see this Hidden Content

 
U prolece 1941. godine, kad je Hitler poceo da osvaja Evropu, u Beograd su navrli najbolji obijaci 
i falsifikatori, medu njima i Glavonja i Kalauz. Oni su zavili u crno mnoge banke i znani su policiji širom Evrope. Glavonja (Dragan Nikolic) je inteligentan, poliglota i promišljen tip. Vreda ga kada ga zovu lopovom - on je nadahnuti obijac, spreman za velike poduhvate i ima vrlo razvijenu samosvest o svom umecu. Kalauz (Nikola Ðuricko) je njegova suprotnost. Pohlepan je na sve što mu zasija pred ocima, sklon je usputnim sitnim kradama, dosta je skromne pameti i - "glup", kako to za njega kaže njegov ortak. Njegovom krivicom "pali" su na prvom poduhvatu u Beogradu.Prica pocinje hapšenjem Glavonje i Kalauza nakon jedne njihove operacije. Pošto sebe smatraju elitom medu zatvorenicima, nisu mogli da jedu zatvorsku hranu, pa su sebi dozvolili da se sami posluže oficirskom hranom, zbog cega su završili u samici.
 
PljackaTrecegrajha2004.avi.gif
 
PljackaTrecegrajha2004.avi.jpg
 
downloade0cdd.gif
 
Pljacka Treceg rajha (2004) DVDRip
 
SFYUbuP.jpg
 
Hidden Content
You'll be able to see the hidden content once you thank this post.

Molbe za moje linkove, šaljite na PP.

 

Zabranjeno je kopiranje mojih linkova,reupload i postavljanje na druge forume!


Thanked by 73 Members:
mackosopa , aaduric , LuuuuLe , GORANJ79 , exerdj , vuco85 , vukotastosic , goransokolovic.fr , Ciba , 303808909 , nAnaD , pcvetkovic50 , lilke , ajdinovski , b50andi , Milenaa94 , JOOjo , alex.kiwi , PNPN , durant212 , alexaa99 , runjaa , eLeSDe87 , dribler4 , mciplic , blauer , DonutWolf , bojanakv , milan cetrovic , zvezdas , Stefi_1997 , BranimirBarnak , LordKG , Zare94 , johnrangel25 , ljubisa1968 , DarkmanX2 , adyy , dzonitru , zenta , danijelalenka , prlezivanovic , internetcaffe , Omina Tricko , urosevac , cikakajtez , tejicma , xection , Shey , marioka , armin79 , filipsta2000 , goranjevic , kockari , nikola93po , pleckowian , aca72 , Simona21 , MEDISONGARDEN , nekobgd , Korto74 , granamax , asdin , cigoyner , theptica , TeodorM1976 , danep , opetopet , vrdule , rusko , miki-maus23 , ss_semi , chadjox



0 user(s) are reading this topic

0 members, 0 guests, 0 anonymous users