Jump to content

Dobrodošli na Balkandownload.org
Tražite domaće knjige, exyu magazine, sinhronizirane crtane filmove, PC i ostale igre, strane i domaće filmove, dokumentarce, stranu i domaću muziku, itd. ? Ne morate tražiti dalje jer sve ćete to naći kod nas, uredno postavljeno i spremno za download. Osim toga registracijom možete sudjelovati u raznim postojećim temama na forumu, otvarati nove teme, sudjelovati u chatu i još mnogo toga. Ako već imaš otvoren račun, logiraj se ovde ,a ako želiš saznati zašto smo najbolji otvori novi račun i uverite se sami :)
Photo

Gluvi barut (1990)


4 replies to this topic

#1
Zoran_

Zoran_

    Gold Member

  • VIP
  • PipPipPipPipPipPip
  • 5,990 posts
  • 149756 thanks

Gluvi barut (1990)


Gluvibarut1990.png

imdb6.jpg
 

Please Login or Register to see this Hidden Content

Prica o jednom srpskom selu visoko u bosanskim planinama ciji su se stanovnici, usred ratnogmeteža, našli na udaru dve ideologije, izmedju cetnika i partizana. Predstavnici te dve ideologije supartizanski komesar Španac i bivši kraljevski oficir Radekic. Španac je indoktrinirani fanatik,nosilac ideja kojima želi da promeni svet ne pitajuci za žrtve, a drugi je realni poznavalac situacije,covek iz tih krajeva koji pokušava da sacuva narod, makar i po cenu sopstvenih ideala. Španac uRadekicu vidi uzroke ogorcenog otpora koji seljaci pružaju novoj ideologiji... Prema motivimaistoimenog romana Branka Copica.


Molbe za moje linkove, šaljite na PP.

 

Zabranjeno je kopiranje mojih linkova,reupload i postavljanje na druge forume!


Thanked by 87 Members:

#2
BD_TV

BD_TV

    Gold Member

  • Sponsor
  • PipPipPipPipPipPip
  • 8,683 posts
  • 508703 thanks

Gluvi barut (1990) PDTV x264 - tina

Hidden Content
You'll be able to see the hidden content once you thank this post.



Thanked by 57 Members:
zvonkora , jadjonbv , lexxxa , milan1968 , dgema82 , bond2019 , mmarko1106 , Dosadno , mtd888 , tihoj , lindza , gigi_acds , GORANJ79 , djordje2 , Franci , balkanac011 , 08sale82 , mawerick , Jackie Chan , liquid , nn007 , zoltan , Dragana Mika , Vule83 , 011gogo , Vronsky , radonja86 , neoplant , draganadragana2010 , chicio , verdant , danijeladanijel , Karamazov , kresomirovic , Filaret , danep , tetkinsin , robertp , spada , Zelenac1 , radionica1 , TopRakun , dutch83 , rusko , Cocco Bill , trevis bikl , opetopet , andra petak , mikula11 , gigo2 , morse , lovaccc , plavi59 , Miki_Kiki_Riki , hectrix , krabulja , sabor

#3
Wolf 13

Wolf 13

    Advanced Member

  • Members
  • PipPipPip
  • 426 posts
  • 33604 thanks
Gluvi barut (1990) DVDrip E-AC3 x264 by Wolf
(MKV)
 
qX8aV6Q.jpg
 

Please Login or Register to see this Hidden Content

 

General
Unique ID                   : 333732339517711253037968265581944485265 (0xFB1282B74167661D01BE8584509DB591)
Complete name               : Gluvi barut (1990) DVDrip E-AC3 x264 by Wolf.mkv
Format                      : Matroska
Format version              : Version 4 / Version 2
File size                   : 1.34 GiB
Duration                    : 1 h 50 min
Overall bit rate            : 1 733 kb/s
Encoded date                : UTC 2018-10-12 16:20:59 / UTC 2018-10-12T13:31:32Z
Writing application         : mkvmerge v27.0.0 ('Metropolis') 64-bit
Writing library             : libebml v1.3.6 + libmatroska v1.4.9 / Lavf57.7.2
 
Video
ID                          : 1
Format                      : AVC
Format/Info                 : Advanced Video Codec
Format profile              : High [email protected]
Format settings             : CABAC / 5 Ref Frames
Format settings, CABAC      : Yes
Format settings, ReFrames   : 5 frames
Codec ID                    : V_MPEG4/ISO/AVC
Duration                    : 1 h 50 min
Bit rate                    : 1 500 kb/s
Width                       : 702 pixels
Height                      : 476 pixels
Display aspect ratio        : 16:9
Original display aspect rat : 16:10
Frame rate mode             : Constant
Frame rate                  : 25.000 FPS
Color space                 : YUV
Chroma subsampling          : 4:2:0
Bit depth                   : 10 bits
Scan type                   : Progressive
Bits/(Pixel*Frame)          : 0.180
Stream size                 : 1.11 GiB (83%)
Title                       : Gluvi barut (1990)
Writing library             : x264 core 155 r2901 7d0ff22
Encoding settings           : cabac=1 / ref=5 / deblock=1:-1:-1 / analyse=0x3:0x113 / me=hex / subme=8 / psy=1 / psy_rd=1.00:0.15 / mixed_ref=1 / me_range=16 / chroma_me=1 / trellis=2 / 8x8dct=1 / cqm=0 / deadzone=21,11 / fast_pskip=1 / chroma_qp_offset=-3 / threads=6 / lookahead_threads=1 / sliced_threads=0 / nr=0 / decimate=1 / interlaced=0 / bluray_compat=0 / constrained_intra=0 / bframes=3 / b_pyramid=2 / b_adapt=1 / b_bias=0 / direct=3 / weightb=1 / open_gop=0 / weightp=2 / keyint=250 / keyint_min=25 / scenecut=40 / intra_refresh=0 / rc_lookahead=50 / rc=2pass / mbtree=1 / bitrate=1500 / ratetol=1.0 / qcomp=0.60 / qpmin=0 / qpmax=81 / qpstep=4 / cplxblur=20.0 / qblur=0.5 / vbv_maxrate=150000 / vbv_bufsize=187500 / nal_hrd=none / filler=0 / ip_ratio=1.40 / aq=1:1.00
Language                    : Serbian
Default                     : Yes
Forced                      : No
Color range                 : Limited
Color primaries             : BT.601 PAL
Transfer characteristics    : BT.709
Matrix coefficients         : BT.601
Statistics Tags Issue       : mkvmerge v27.0.0 ('Metropolis') 64-bit 2018-10-12 16:20:59 / mkvmerge v27.0.0 ('Metropolis') 64-bit 2018-10-12 16:20:59 / UTC 2018-10-12T13:31:32Z
FromStats_BitRate           : 1500360
FromStats_Duration          : 01:48:30.000000000
FromStats_FrameCount        : 162750
FromStats_StreamSize        : 1220918455
 
Audio
ID                          : 2
Format                      : E-AC-3
Format/Info                 : Enhanced Audio Coding 3
Codec ID                    : A_EAC3
Duration                    : 1 h 50 min
Bit rate mode               : Constant
Bit rate                    : 256 kb/s
Channel(s)                  : 6 channels
Channel positions           : Front: L C R, Side: L R, LFE
Sampling rate               : 48.0 kHz
Frame rate                  : 187.500 FPS (256 SPF)
Compression mode            : Lossy
Delay relative to video     : -5 ms
Stream size                 : 202 MiB (15%)
Title                       : Gluvi barut (1990)
Language                    : Serbian
Service kind                : Complete Main
Default                     : Yes
Forced                      : No
Statistics Tags Issue       : mkvmerge v27.0.0 ('Metropolis') 64-bit 2018-10-12 16:20:59 / mkvmerge v27.0.0 ('Metropolis') 64-bit 2018-10-12 16:20:59 / UTC 2018-10-12T13:31:32Z
FromStats_BitRate           : 256000
FromStats_Duration          : 01:50:22.368000000
FromStats_FrameCount        : 206949
FromStats_StreamSize        : 211915776
 
k2aTdzy.png
Hidden Content
You'll be able to see the hidden content once you thank this post.
 
BDzxZov.png
Ns84tUp.jpg


Thanked by 67 Members:
zvonkora , dupin , dado71 , Radzor , milan1968 , dgema82 , bond2019 , Edifier , balkanmmb , segenik , Dosadno , chefko , tegejac , nixonns , GORANJ79 , spada , lindza , gigi_acds , SaleXieri , Zelenac1 , vladimir sramka , james12320 , MilasMario , misapop , Milan1959 , icaleptir , samirj , balkanac011 , 08sale82 , rafael13 , rile1972 , ivana1201 , severing , novicanovica , vlaha8 , pippy , JaJelena , krabulja , Ismet68 , danijeladanijel , aca0808 , mercury99 , nn007 , Dragana Mika , alexahf , Alamo74 , micelj , rusko , Korto74 , akiro , 011gogo , beograd1960' , tetkinsin , tonitaxi , Priboj64 , dj1van , opetopet , Filaret , Smajo , Franci , Vronsky , BobbyPeruAd , ss_semi , Biotloneta , danep , Miki_Kiki_Riki , hectrix

#4
Zoran_

Zoran_

    Gold Member

  • VIP
  • PipPipPipPipPipPip
  • 5,990 posts
  • 149756 thanks
Gluvi barut (1990)
 
 
Gluvibarut1990.png
 
imdb6.jpg
 

Please Login or Register to see this Hidden Content

 
Prica o jednom srpskom selu visoko u bosanskim planinama ciji su se stanovnici, usred ratnogmeteža, našli na udaru dve ideologije, izmedju cetnika i partizana. Predstavnici te dve ideologije supartizanski komesar Španac i bivši kraljevski oficir Radekic. Španac je indoktrinirani fanatik,nosilac ideja kojima želi da promeni svet ne pitajuci za žrtve, a drugi je realni poznavalac situacije,covek iz tih krajeva koji pokušava da sacuva narod, makar i po cenu sopstvenih ideala. Španac uRadekicu vidi uzroke ogorcenog otpora koji seljaci pružaju novoj ideologiji... Prema motivimaistoimenog romana Branka Copica.
 
Gluvibarut1990.avi.gif
 
Gluvibarut1990.avi.jpg
 
downloade0cdd.gif
 
Gluvi barut (1990) DVDRip
 
SFYUbuP.jpg
 
Hidden Content
You'll be able to see the hidden content once you thank this post.

Molbe za moje linkove, šaljite na PP.

 

Zabranjeno je kopiranje mojih linkova,reupload i postavljanje na druge forume!


Thanked by 47 Members:
tompar , jadjonbv , lexxxa , dejanvasiljevic76 , vlast69 , adyy , Jev13 , Dijana1974 , goransokolovic.fr , dado71 , milan1968 , bond2019 , balkanmmb , segenik , Dosadno , lindza , gigi_acds , GORANJ79 , zoran48 , zlikuvar , vladimir sramka , Alamo74 , indukcia , djordje2 , Jokso , samirj , 08sale82 , rile1972 , rbarron , ivana1201 , cicmica , severing , kresomirovic , 2504 , kristinasavicevic , kormi17 , Korto74 , baneiv , dejvid1996 , cigoyner , Miki_Kiki_Riki , Cocco Bill , opetopet , miki-maus23 , Franci , salgija , jaske

#5
Zoran_

Zoran_

    Gold Member

  • VIP
  • PipPipPipPipPipPip
  • 5,990 posts
  • 149756 thanks
Gluvi barut (1990)
 
 
Gluvibarut1990.png
 
Su6Ksi6.jpg
 

Please Login or Register to see this Hidden Content

 
Prica o jednom srpskom selu visoko u bosanskim planinama ciji su se stanovnici, usred ratnogmeteža, našli na udaru dve ideologije, izmedju cetnika i partizana. Predstavnici te dve ideologije supartizanski komesar Španac i bivši kraljevski oficir Radekic. Španac je indoktrinirani fanatik,nosilac ideja kojima želi da promeni svet ne pitajuci za žrtve, a drugi je realni poznavalac situacije,covek iz tih krajeva koji pokušava da sacuva narod, makar i po cenu sopstvenih ideala. Španac uRadekicu vidi uzroke ogorcenog otpora koji seljaci pružaju novoj ideologiji... Prema motivimaistoimenog romana Branka Copica.
 
lfyuf52dz3k.png
 
ou1TRpE.jpg
 
2DeI9iR.jpg
 
Oets6ur.gif
 
Gluvi barut (1990) 1080p.HDTV.x264.mkv
 
SFYUbuP.jpg
 
Hidden Content
You'll be able to see the hidden content once you thank this post.

Molbe za moje linkove, šaljite na PP.

 

Zabranjeno je kopiranje mojih linkova,reupload i postavljanje na druge forume!


Thanked by 45 Members:
adyy , dado71 , r2d2 , milan1968 , Jev13 , RajkulaMVP , mmarko1106 , Dosadno , ablepe1 , tegejac , Stefi_1997 , severing , lindza , newkid , sale pn , gigi_acds , MP22 , Edifier , settim , burgo , Zelenac1 , vladimir sramka , dopre , james12320 , zoki71 , somci , nixonns , balkanac011 , rusko , jane20 , beograd1960' , misapop , nikollla , kale_cg , makiboki , rile1972 , Prene , fffunkymannn , callipso , Milan1959 , Biotloneta , dadodadic , icaleptir , BobbyPeruAd , Miki_Kiki_Riki



0 user(s) are reading this topic

0 members, 0 guests, 0 anonymous users