Jump to content

Dobrodošli na Balkandownload.org
Tražite domaće knjige, exyu magazine, sinhronizirane crtane filmove, PC i ostale igre, strane i domaće filmove, dokumentarce, stranu i domaću muziku, itd. ? Ne morate tražiti dalje jer sve ćete to naći kod nas, uredno postavljeno i spremno za download. Osim toga registracijom možete sudjelovati u raznim postojećim temama na forumu, otvarati nove teme, sudjelovati u chatu i još mnogo toga. Ako već imaš otvoren račun, logiraj se ovde ,a ako želiš saznati zašto smo najbolji otvori novi račun i uverite se sami :)
Photo

Parada (2011)


3 replies to this topic

#1
Casino

Casino

    Gold Member

  • Global moderator
  • 6,898 posts
  • 134734 thanks

Parada.2011.DVDRip.x264-BD4YU


7fUVyvY.jpg




Hidden Content
You'll be able to see the hidden content once you thank this post.

Edited by Casino, 03 August 2016 - 18:32.
obnovljeni linkovi

imdb top 250 prevod

http://www.balkandownload.org/topic/40972-imdb-250-sa-prevodima/]

Thanked by 263 Members:

#2
Zoran_

Zoran_

    Gold Member

  • VIP
  • PipPipPipPipPipPip
  • 5,984 posts
  • 149315 thanks
Parada (2011)
 
 
M2R3CwV.png
 
Su6Ksi6.jpg
 

Please Login or Register to see this Hidden Content

 
Domaci film "Parada" iz 2011 godine, prica je  o homoseksualnoj zajednici, odnosno homoseksualcima koji zive u Srbiji, sa posebnim akcentom na Beograd. Film pokusava da docara teske uslove i veliki stepen odbojnosti koju drustvo oseca prema pripadnicima ove zajednice kao i o zelji pripadnika ove grupacije da izadju iz mraka u kome su sada i da se javno i "ponosno" obznane drustvu. Medjutim, organizacija jednog takvog javnog skupa kao sto je "parada ponosa", je sve samo ne jednostavna. Kako je broj onih koji su spremni za fizicki obracun sa eventualnim akterima iste, veliki, deluje da je to neizvodljiv poduhvat i vecina pripadnika LGBT populacije se povukla vec na prvi znak opasnosti. Ali jedan od homoseksualnih aktivista dolazi na briljantan plan. On planira da na nasilje odgovori nasiljem i uskoro dolazi na ideju da angazuje lokalnog grubijana Limuna, ratnog veterana sa brojnim vezama u zemlji i regionu koji je ujedno i vlasnik agencije za obezbedjenje a koji ni sam nije ljubitelj doticne grupacije. Medjutim, kako svaki covek ima i svoje slabe tacke, tako i glavni akter Limun ima svoju. To je njegova zena, koja oseca simpatije i saosecanje prema ovoj zajednici cija su prava ugrozena. Uskoro Limun biva prinudjen da prihvati posao a kako se stvari dalje razvijaju, saznacete ako odgledate film...
 
br1xji6c09f.png
 
ykuGQQB.gif
 
K52SWUc.jpg
 
Oets6ur.gif
 
Parada (2011) DVDRip.x264.mkv 
 
SFYUbuP.jpg
 
Hidden Content
You'll be able to see the hidden content once you thank this post.

Molbe za moje linkove, šaljite na PP.

 

Zabranjeno je kopiranje mojih linkova,reupload i postavljanje na druge forume!


Thanked by 75 Members:
Cvjcak , gonzikus , krlle , catlea80 , baraba , Rakar , mikula11 , kika66 , lazicseno , 4w0nr4 , kostolac , bothari973 , milicfilip , filip_cg , A4ka , lovac666 , bookworm020 , GRT7 , retar , Marko18 , Jozo Jozo Fibrozo , hubclub , Titt0 , bladdad , vukoje32 , ismail , gigissa , 303808909 , goransokolovic.fr , dejanvasiljevic76 , tixi , Belysd , sstv , DakaZvaka , ina12 , bbob3500 , Kosta92 , miamivice , hobotnica , bane007 , bubimir13 , cldarko , jod8871 , krychek , Zare94 , milanalorica , Tijana1803 , o'fallon , zorandju , shearer79 , Milfir , amiga500 , Franci , Busika89 , Nick_Praskaton , cipiripi , mciplic , borislav022 , JD36 , marko378 , micelj , zlatko.bosnar , rosic , Zelenac1 , Jokso , zagy_2001 , maruj , radonja86 , ss_semi , alexxxxa , tiho666 , blauer , obylastat , Biotloneta , beograd1960'

#3
kostolomac

kostolomac

    Advanced Member

  • Members
  • PipPipPip
  • 148 posts
  • 12642 thanks

Parada.2011.720p.WEBRip.x264-NEO

 

Hidden Content
You'll be able to see the hidden content once you thank this post.



Thanked by 30 Members:
mikula11 , anelkos , lazicseno , kostolac , Zelenac1 , Wolf 13 , LuuuuLe , Yuppicide , burgo , Sanjin13 , denimiko1 , mirko_cilicax , internetcaffe , bookworm020 , icaleptir , blauer , macessatt , SilentStorm666 , opetopet , goraneo , callipso , BobbyPeruAd , fritz200300 , beograd1960' , senilni , PEKIPEKICA , Urosito , danep , liquid , stankokljajic

#4
Wolf 13

Wolf 13

    Advanced Member

  • Members
  • PipPipPip
  • 426 posts
  • 33439 thanks
Parada (2011) 720p WEBrip DD5.1 x264 by Wolf
(MKV)
 
952SJpk.jpg
 

Please Login or Register to see this Hidden Content

 

General
Unique ID                   : 10034147727673069942291895031880156629 (0x78C81ADC0D02E4387D4F984F30305D5)
Complete name               : Parada (2011) 720p WEBrip DD5.1 x264 by Wolf.mkv
Format                      : Matroska
Format version              : Version 4
File size                   : 1.50 GiB
Duration                    : 1 h 55 min
Overall bit rate            : 1 857 kb/s
Encoded date                : UTC 2019-10-30 19:56:40
Writing application         : mkvmerge v38.0.0 ('The Silent Type') 64-bit
Writing library             : libebml v1.3.9 + libmatroska v1.5.2
 
Video
ID                          : 1
Format                      : AVC
Format/Info                 : Advanced Video Codec
Format profile              : [email protected]
Format settings             : CABAC / 16 Ref Frames
Format settings, CABAC      : Yes
Format settings, Reference  : 16 frames
Codec ID                    : V_MPEG4/ISO/AVC
Duration                    : 1 h 55 min
Bit rate                    : 1 600 kb/s
Width                       : 1 280 pixels
Height                      : 720 pixels
Display aspect ratio        : 2.35:1
Frame rate mode             : Constant
Frame rate                  : 25.000 FPS
Color space                 : YUV
Chroma subsampling          : 4:2:0
Bit depth                   : 8 bits
Scan type                   : Progressive
Bits/(Pixel*Frame)          : 0.069
Stream size                 : 1.29 GiB (86%)
Title                       : Parada (2011)
Writing library             : x264 core 157 r2935 545de2f
Encoding settings           : cabac=1 / ref=16 / deblock=1:-1:-1 / analyse=0x3:0x133 / me=umh / subme=10 / psy=1 / psy_rd=1.00:0.15 / mixed_ref=1 / me_range=24 / chroma_me=1 / trellis=2 / 8x8dct=1 / cqm=0 / deadzone=21,11 / fast_pskip=1 / chroma_qp_offset=-3 / threads=6 / lookahead_threads=1 / sliced_threads=0 / nr=0 / decimate=1 / interlaced=0 / bluray_compat=0 / constrained_intra=0 / bframes=8 / b_pyramid=2 / b_adapt=2 / b_bias=0 / direct=3 / weightb=1 / open_gop=0 / weightp=2 / keyint=250 / keyint_min=25 / scenecut=40 / intra_refresh=0 / rc_lookahead=60 / rc=2pass / mbtree=1 / bitrate=1600 / ratetol=1.0 / qcomp=0.60 / qpmin=0 / qpmax=69 / qpstep=4 / cplxblur=20.0 / qblur=0.5 / vbv_maxrate=300000 / vbv_bufsize=300000 / nal_hrd=none / filler=0 / ip_ratio=1.40 / aq=1:1.00
Language                    : Serbian
Default                     : Yes
Forced                      : No
Color range                 : Limited
Color primaries             : BT.709
Transfer characteristics    : BT.709
Matrix coefficients         : BT.709
 
Audio
ID                          : 2
Format                      : E-AC-3
Format/Info                 : Enhanced AC-3
Commercial name             : Dolby Digital Plus
Codec ID                    : A_EAC3
Duration                    : 1 h 55 min
Bit rate mode               : Constant
Bit rate                    : 256 kb/s
Channel(s)                  : 6 channels
Channel layout              : L R C LFE Ls Rs
Sampling rate               : 48.0 kHz
Frame rate                  : 31.250 FPS (1536 SPF)
Compression mode            : Lossy
Delay relative to video     : -5 ms
Stream size                 : 212 MiB (14%)
Title                       : Parada (2011)
Language                    : Serbian
Service kind                : Complete Main
Default                     : Yes
Forced                      : No
 
epYscVA.png
Hidden Content
You'll be able to see the hidden content once you thank this post.
zbNKcak.jpg
Hidden Content
You'll be able to see the hidden content once you thank this post.
 
tDJabk5.png
2xHcDzs.jpg


Thanked by 33 Members:
Zelenac1 , DJ Zlayo , Dule016 , EviLerror , aaduric , Monolith , baraba , grof65 , aca72 , Tolle , G-Zeko , klen112 , ivory , mirko_cilicax , xejt , Franci , rusko , lika , balkanac011 , mikula11 , denimiko1 , danep , alexxxxa , milanzivic , goraneo , chadjox , fritz200300 , akiro , ppribic , fffunkymannn , beograd1960' , ss_semi , dzsemo



0 user(s) are reading this topic

0 members, 0 guests, 0 anonymous users