Jump to content

Dobrodošli na Balkandownload.org
Tražite domaće knjige, exyu magazine, sinhronizirane crtane filmove, PC i ostale igre, strane i domaće filmove, dokumentarce, stranu i domaću muziku, itd. ? Ne morate tražiti dalje jer sve ćete to naći kod nas, uredno postavljeno i spremno za download. Osim toga registracijom možete sudjelovati u raznim postojećim temama na forumu, otvarati nove teme, sudjelovati u chatu i još mnogo toga. Ako već imaš otvoren račun, logiraj se ovde ,a ako želiš saznati zašto smo najbolji otvori novi račun i uverite se sami :)
Photo

Kad Svane Dan (2012)


3 replies to this topic

#1
Tobacco Road

Tobacco Road

    The Warez GOD

  • Tobacco
  • PipPipPipPipPipPipPipPipPipPip
  • 23,347 posts
  • 995529 thanks
  • Locationscrls

Kad Svane Dan (2012)

 

 

01408125386672884693.jpg

Please Login or Register to see this Hidden Content

Rezija: Goran Paskaljevic
Trajanje: 87 minuta
 
Video: Xvid 720  304 [email protected]
Audio: AC3 5.1 [email protected]
Velicina: 1.08GB
 
 
 
Mustafa Nadarevic, Mira Banjac, Meto Jovanovski, Nada Sargin, Zafir Hadzimanov, Rade Kojadinovic, Toma Jovanovic, Olga Petrovic, Jelena Djulvezan, Vlada Jeftovic, Bora Nenic, Ivana Vukovic, Marko Jeremic, Zinaida Dedakin, Aron Balazs, Ratko Miletic
 
Igrani film 'Kad svane dan' prica je o 72-godisnjem profesoru glazbe Misi Brankovu, koji pod neobicnim okolnostima otkriva svoje pravo podrijetlo. Prilikom iskopavanja na mjestu gdje je nekada bio Judenlager Semlin, koncentracijski logor u Beogradu, radnici pronalaze kutiju s dokumentima koju je daleke 1941. zakopao logoras Isaac Weiss. Profesor  saznaje da su njegovi pravi roditelji Weissovi koji su ga, prije nego sto su odvedeni u logor, dali na cuvanje prijateljima, porodici Brankov. U kutiji je i nedovrsena glazbena partitura pod nazivom 'Kad svane dan', koju je komponirao Isaac Weiss. Tragajuci za istinom o sebi, profesor traga i za malo poznatom istinom o logoru. Istovremeno, postaje opsjednut dovrsavanjem zapocete kompozicije i izvodjenjem maestralne molitve za mrtve na mjestu nekadasnjega logora.
 
 
Film „Kad svane dan” Gorana Paskaljevića, srpski kandidat za nagradu Oskar Američke filmske akademije, imaće beogradsku premijeru 24. decembra u „Sava” centru.
 
Paskaljević je rekao da je dve sedmice proveo u Los Anđelesu, gde su „sa malo para organizovali malu kampanju”, imali nekoliko projekcija i ostavili dobar utisak, ali i da je dobijanje Oskara „lutrija”.
 
On je ispričao i da je Muzej tolerancije u Los Anđelesu organizovao projekciju filma „Kad svane dan” u punoj sali. „Tom prilikom sam rekao da je moj cilj da se i na Starom sajmištu napravi manji Muzej tolerancije i neki su se čak i javili da daju priloge za to”, dodao je Paskaljević. „Kad svane dan” je priča o penzionisanom profesoru muzike Miši Brankovu, koji pod neobičnim okolnostima otkriva da su mu pravi roditelji Vajsovi stradali u logoru i tragajući za istinom o sebi i svome poreklu, on traga i za malo poznatom istinom o logoru na Starom sajmištu.
 
Koscenarista Filip David je istakao da je „Kad svane dan”, utemeljen na istinitim pričama, film o „velikom nasilju bez nasilja”, priča o sudbini jednog čoveka, kojim se skreće pažnja i na zapušteno svratište gde danas postoje kućice od kartona za ljude koji nemaju gde.
 
 
Ej722ms.jpg
 
 
 
 
Besplatan download - ceo film
Hidden Content
You'll be able to see the hidden content once you thank this post.


 

 

Kako skinuti nesto sa Balkandownload-a?

www.slideshare.net/bd4yu/kako-skidati-fajlove-sa-balkan-download-a

Kako da pronadjete zeljeni sadrzaj na forumu? 

www.balkandownload.org/topic/40428-kako-pronaci-zeljeni-sadrzaj-na-forumu/

Najmračniji krugovi pakla su rezervisani za one koji u vremenima moralne krize ostanu neutralni i suzdržani -Dante Alighieri


Thanked by 142 Members:

#2
HiDe

HiDe

    Gold Member

  • Guests
  • PipPipPipPipPipPip
  • 6,554 posts
  • 286021 thanks
Kad svane dan (2012) [email protected]
 
ksd2cjsp.jpg
 
info1usw2.png
IME : Kad svane dan (2012) [email protected]
FORMAT : AVI  ➽  1 787 Kbps
VELIČINA : 1,08 GiB  ➽  1h 26min 42s 640ms
 
VIDEO : MPEG-4 Visual  ➽  1 330 Kbps
REZOLUCIJA : 720 x 304 (2.368)  ➽  25.000 fps
 
AUDIO : AC-3  ➽  448 Kbps
TON SISTEM : 6 Kanala  ➽  48,0 KHz
 
Hidden Content
You'll be able to see the hidden content once you thank this post.


Thanked by 105 Members:

#3
ludimilojko88

ludimilojko88

    Advanced Member

  • Members
  • PipPipPip
  • 368 posts
  • 28300 thanks

Kad svane dan (2012)

 

 

Kad-Svane-dan-2012-mp4-thumbs-2019-01-27

 

 

 

Hidden Content
You'll be able to see the hidden content once you thank this post.


Edited by ludimilojko88, 28 January 2019 - 13:23.


Thanked by 50 Members:
zoxkg , Jorgos , lilke , 303808909 , draganbauk , toma07 , zorandju , b50andi , prey24 , holebl1 , skrbiczoran , Dijana1974 , james12320 , kanki , tiho14 , xnoz25 , Ivan2010 , majnan , miliandjelijater , daniveka , 08sale82 , 8C805w , nesa05 , vita , kapetanovici , Nebojsa1985 , Wolf 13 , tonzuleja , dreidolin , beograd1960' , nesom , goraneo , vfk45 , jumanjinz , gregl , Vronsky , bobankostic , liquid , kprekrat2 , 83srdjan , i_023 , icaleptir , zoran48 , Zelenac1 , Milfir , salgija , opetopet , philips5990 , Milan1959 , mawerick

#4
Wolf 13

Wolf 13

    Advanced Member

  • Members
  • PipPipPip
  • 426 posts
  • 33585 thanks
Kad svane dan (2012) 1080p RTS DD5.1 x264 by Wolf
(MKV)
 
PmiqXt0.jpg
 

Please Login or Register to see this Hidden Content

 

General
Unique ID                   : 109043674447518832846271688405161882196 (0x52090C3BBB938F4D60DFBE5851BC3254)
Complete name               : Kad svane dan (2012) 1080p RTS DD5.1 x264 by Wolf.mkv
Format                      : Matroska
Format version              : Version 4
File size                   : 1.04 GiB
Duration                    : 1 h 24 min
Overall bit rate            : 1 757 kb/s
Encoded date                : UTC 2019-01-31 14:41:21
Writing application         : mkvmerge v30.1.0 ('Forever And More') 64-bit
Writing library             : libebml v1.3.6 + libmatroska v1.4.9 / Lavf58.20.100
 
Video
ID                          : 1
Format                      : AVC
Format/Info                 : Advanced Video Codec
Format profile              : [email protected]
Format settings             : CABAC / 8 Ref Frames
Format settings, CABAC      : Yes
Format settings, ReFrames   : 8 frames
Codec ID                    : V_MPEG4/ISO/AVC
Duration                    : 1 h 24 min
Bit rate                    : 1 500 kb/s
Width                       : 1 918 pixels
Height                      : 866 pixels
Display aspect ratio        : 2.2:1
Frame rate mode             : Constant
Frame rate                  : 25.000 FPS
Color space                 : YUV
Chroma subsampling          : 4:2:0
Bit depth                   : 8 bits
Scan type                   : Progressive
Bits/(Pixel*Frame)          : 0.036
Stream size                 : 911 MiB (85%)
Title                       : Kad svane dan (2012)
Writing library             : x264 core 157 r2935 545de2f
Encoding settings           : cabac=1 / ref=8 / deblock=1:-1:-1 / analyse=0x3:0x133 / me=umh / subme=9 / psy=1 / psy_rd=1.00:0.15 / mixed_ref=1 / me_range=16 / chroma_me=1 / trellis=2 / 8x8dct=1 / cqm=0 / deadzone=21,11 / fast_pskip=1 / chroma_qp_offset=-3 / threads=6 / lookahead_threads=1 / sliced_threads=0 / nr=0 / decimate=1 / interlaced=0 / bluray_compat=0 / constrained_intra=0 / bframes=3 / b_pyramid=2 / b_adapt=2 / b_bias=0 / direct=3 / weightb=1 / open_gop=0 / weightp=2 / keyint=250 / keyint_min=25 / scenecut=40 / intra_refresh=0 / rc_lookahead=60 / rc=2pass / mbtree=1 / bitrate=1500 / ratetol=1.0 / qcomp=0.60 / qpmin=0 / qpmax=69 / qpstep=4 / cplxblur=20.0 / qblur=0.5 / vbv_maxrate=300000 / vbv_bufsize=300000 / nal_hrd=none / filler=0 / ip_ratio=1.40 / aq=1:1.00
Language                    : Serbian
Default                     : Yes
Forced                      : No
Color range                 : Limited
Color primaries             : BT.709
Transfer characteristics    : BT.709
Matrix coefficients         : BT.709
 
Audio
ID                          : 2
Format                      : E-AC-3
Format/Info                 : Enhanced AC-3
Commercial name             : Dolby Digital Plus
Codec ID                    : A_EAC3
Duration                    : 1 h 24 min
Bit rate mode               : Constant
Bit rate                    : 256 kb/s
Channel(s)                  : 6 channels
Channel layout              : L R C LFE Ls Rs
Sampling rate               : 48.0 kHz
Frame rate                  : 31.250 FPS (1536 SPF)
Compression mode            : Lossy
Delay relative to video     : -5 ms
Stream size                 : 155 MiB (15%)
Title                       : Kad svane dan (2012)
Language                    : Serbian
Service kind                : Complete Main
Default                     : Yes
Forced                      : No
 
epYscVA.png
Hidden Content
You'll be able to see the hidden content once you thank this post.
 
OU1m3Tt.png
4TIhBfH.jpg


Thanked by 48 Members:
4w0nr4 , zoxkg , fleqa , ruzina , 303808909 , draganbauk , pulser , acika94 , Verdeja , toma07 , zorandju , b50andi , sasham060 , prey24 , holebl1 , skrbiczoran , segenik , chefko , kanki , tiho14 , xnoz25 , majnan , miliandjelijater , nesom , Homss , AccccO , 08sale82 , salgija , prijelospomakom , 8C805w , nesa05 , Vronsky , vita , radiopr , beograd1960' , opetopet , SHOX , provalitemenenemojtenju , stacker170472 , kapetanovici , kprekrat2 , icaleptir , danijeladanijel , Zelenac1 , fffunkymannn , Nebojsa1985 , philips5990 , Biotloneta



0 user(s) are reading this topic

0 members, 0 guests, 0 anonymous users