Jump to content

Dobrodošli na Balkandownload.org
Tražite domaće knjige, exyu magazine, sinhronizirane crtane filmove, PC i ostale igre, strane i domaće filmove, dokumentarce, stranu i domaću muziku, itd. ? Ne morate tražiti dalje jer sve ćete to naći kod nas, uredno postavljeno i spremno za download. Osim toga registracijom možete sudjelovati u raznim postojećim temama na forumu, otvarati nove teme, sudjelovati u chatu i još mnogo toga. Ako već imaš otvoren račun, logiraj se ovde ,a ako želiš saznati zašto smo najbolji otvori novi račun i uverite se sami :)
Photo

Carlston za Ognjenku (2008)


2 replies to this topic

#1
Zoran_

Zoran_

    Gold Member

  • VIP
  • PipPipPipPipPipPip
  • 6,008 posts
  • 150230 thanks
Carlston za Ognjenku (2008)
 
 
CarlstonZaOgnjenku2008.png
 
imdb6.jpg
 

Please Login or Register to see this Hidden Content

 
Srbija dvadesetih godina prošlog veka, u smiraj Prvog svetskog rata - očaravajuća, mistična, surova, večno razapeta između Istoka i Zapada, između drevnih paganskih mađija i sila civilizacije. Visoko u krševitim planinama leži selo Pokrp, čije je čitavo muško stanovništvo izginulo u pređašnjim ratovima. Selo neljubljenih žena koje skapavaju za muškarcima.Kada sestre narikače, Mala Boginja i Ognjenka, u bezuspešnom pokušaju da izgube nevinost, slučajno bez života ostave jedinog preživelog pokrpskog muškarca - prastarog i iznemoglog deda Bisu, nađu se pred "strašnim sudom" ogorčenih seoskih žena.Ali,uspevaju da iznude pomilovanje pod uslovom da pronađu živog i pokretnog muškarca, uhvate ga i dovedu u selo. Pod budnim okom duha svoje stroge babe, Velike Boginje, dve vatrene, ali i naivne sestre kreću u veliki, beli svet. Očekuju ih strast, avantura, ljubav, razmetljivi snagator i ulickani kralj beogradskih plesnih dvorana.

Molbe za moje linkove, šaljite na PP.

 

Zabranjeno je kopiranje mojih linkova,reupload i postavljanje na druge forume!


Thanked by 102 Members:

#2
Wolf 13

Wolf 13

    Advanced Member

  • Members
  • PipPipPip
  • 426 posts
  • 33707 thanks
Carlston za Ognjenku (2008) DVDrip E-AC3 x264 by Wolf
(MKV)
 
BZlvzpz.jpg
 

Please Login or Register to see this Hidden Content

 

General
Unique ID                   : 142457515328736910850201527636762429883 (0x6B2C51C7F6D6ED7581DC2561686E09BB)
Complete name               : Carlston za Ognjenku (2008) DVDrip E-AC3 x264 by Wolf.mkv
Format                      : Matroska
Format version              : Version 4 / Version 2
File size                   : 1.13 GiB
Duration                    : 1 h 32 min
Overall bit rate            : 1 746 kb/s
Encoded date                : UTC 2018-10-21 17:01:52 / UTC 2018-10-21T13:46:37Z
Writing application         : mkvmerge v28.0.0 ('Voice In My Head') 64-bit
Writing library             : libebml v1.3.6 + libmatroska v1.4.9 / Lavf57.7.2
 
Video
ID                          : 1
Format                      : AVC
Format/Info                 : Advanced Video Codec
Format profile              : High [email protected]
Format settings             : CABAC / 8 Ref Frames
Format settings, CABAC      : Yes
Format settings, ReFrames   : 8 frames
Codec ID                    : V_MPEG4/ISO/AVC
Duration                    : 1 h 32 min
Bit rate                    : 1 500 kb/s
Width                       : 718 pixels
Height                      : 424 pixels
Display aspect ratio        : 2.40:1
Frame rate mode             : Constant
Frame rate                  : 25.000 FPS
Color space                 : YUV
Chroma subsampling          : 4:2:0
Bit depth                   : 10 bits
Scan type                   : Progressive
Bits/(Pixel*Frame)          : 0.197
Stream size                 : 966 MiB (83%)
Title                       : Carlston za Ognjenku (2008)
Writing library             : x264 core 155 r2901 7d0ff22
Encoding settings           : cabac=1 / ref=8 / deblock=1:-1:-1 / analyse=0x3:0x133 / me=umh / subme=9 / psy=1 / psy_rd=1.00:0.15 / mixed_ref=1 / me_range=16 / chroma_me=1 / trellis=2 / 8x8dct=1 / cqm=0 / deadzone=21,11 / fast_pskip=1 / chroma_qp_offset=-3 / threads=6 / lookahead_threads=1 / sliced_threads=0 / nr=0 / decimate=1 / interlaced=0 / bluray_compat=0 / constrained_intra=0 / bframes=3 / b_pyramid=2 / b_adapt=2 / b_bias=0 / direct=3 / weightb=1 / open_gop=0 / weightp=2 / keyint=250 / keyint_min=25 / scenecut=40 / intra_refresh=0 / rc_lookahead=60 / rc=2pass / mbtree=1 / bitrate=1500 / ratetol=1.0 / qcomp=0.60 / qpmin=0 / qpmax=81 / qpstep=4 / cplxblur=20.0 / qblur=0.5 / vbv_maxrate=150000 / vbv_bufsize=187500 / nal_hrd=none / filler=0 / ip_ratio=1.40 / aq=1:1.00
Language                    : Serbian
Default                     : Yes
Forced                      : No
Color range                 : Limited
Color primaries             : BT.601 PAL
Transfer characteristics    : BT.709
Matrix coefficients         : BT.601
Statistics Tags Issue       : mkvmerge v28.0.0 ('Voice In My Head') 64-bit 2018-10-21 17:01:52 / mkvmerge v28.0.0 ('Voice In My Head') 64-bit 2018-10-21 17:01:52 / UTC 2018-10-21T13:46:37Z
FromStats_BitRate           : 1499856
FromStats_Duration          : 01:32:06.000000000
FromStats_FrameCount        : 138150
FromStats_StreamSize        : 1036026194
 
Audio
ID                          : 2
Format                      : E-AC-3
Format/Info                 : Enhanced Audio Coding 3
Codec ID                    : A_EAC3
Duration                    : 1 h 32 min
Bit rate mode               : Constant
Bit rate                    : 256 kb/s
Channel(s)                  : 6 channels
Channel positions           : Front: L C R, Side: L R, LFE
Sampling rate               : 48.0 kHz
Frame rate                  : 187.500 FPS (256 SPF)
Compression mode            : Lossy
Delay relative to video     : -5 ms
Stream size                 : 170 MiB (15%)
Title                       : Carlston za Ognjenku (2008)
Language                    : Serbian
Service kind                : Complete Main
Default                     : Yes
Forced                      : No
Statistics Tags Issue       : mkvmerge v28.0.0 ('Voice In My Head') 64-bit 2018-10-21 17:01:52 / mkvmerge v28.0.0 ('Voice In My Head') 64-bit 2018-10-21 17:01:52 / UTC 2018-10-21T13:46:37Z
FromStats_BitRate           : 256000
FromStats_Duration          : 01:32:48.000000000
FromStats_FrameCount        : 174000
FromStats_StreamSize        : 178176000
 
epYscVA.png
Hidden Content
You'll be able to see the hidden content once you thank this post.
 
5mnjXlZ.png
lBkTBsD.jpg


Thanked by 78 Members:

#3
Zoran_

Zoran_

    Gold Member

  • VIP
  • PipPipPipPipPipPip
  • 6,008 posts
  • 150230 thanks
Carlston za Ognjenku (2008)
 
 
o48kZya.png
 
Su6Ksi6.jpg
 

Please Login or Register to see this Hidden Content

 
Srbija dvadesetih godina prošlog veka, u smiraj Prvog svetskog rata - očaravajuća, mistična, surova, večno razapeta između Istoka i Zapada, između drevnih paganskih mađija i sila civilizacije. Visoko u krševitim planinama leži selo Pokrp, čije je čitavo muško stanovništvo izginulo u pređašnjim ratovima. Selo neljubljenih žena koje skapavaju za muškarcima.Kada sestre narikače, Mala Boginja i Ognjenka, u bezuspešnom pokušaju da izgube nevinost, slučajno bez života ostave jedinog preživelog pokrpskog muškarca - prastarog i iznemoglog deda Bisu, nađu se pred "strašnim sudom" ogorčenih seoskih žena.Ali,uspevaju da iznude pomilovanje pod uslovom da pronađu živog i pokretnog muškarca, uhvate ga i dovedu u selo. Pod budnim okom duha svoje stroge babe, Velike Boginje, dve vatrene, ali i naivne sestre kreću u veliki, beli svet. Očekuju ih strast, avantura, ljubav, razmetljivi snagator i ulickani kralj beogradskih plesnih dvorana.
 
ekdjiv09hhc.png
 
lREx1gR.gif
 
LqJN0s0.jpg
 
Oets6ur.gif
 
Carlston za Ognjenku (2008) DVDRip.x264.mkv
 
SFYUbuP.jpg
 
Hidden Content
You'll be able to see the hidden content once you thank this post.

Molbe za moje linkove, šaljite na PP.

 

Zabranjeno je kopiranje mojih linkova,reupload i postavljanje na druge forume!


Thanked by 57 Members:
Nenad71088 , tiho13 , Jorgos , darkow , goransokolovic.fr , 27bit , Sekundica , halka , peta.jashek , iljeva990 , Mikele Placido , StefanUžice , Dijana1974 , zorandju , anaaboki , b50andi , Bontonko , vajtaun , sstv , pinosavac2 , guzjan , sviki94 , janko moravek , kaloss , Attila , pelezic , srbijaafrika , urke2 , kanki , zoneuznisipucki , xection , Miramika , maliwrag , morse , toco222 , slomljenakrila , MP22 , damirprc , karudijan11 , matic87 , Zelenac1 , salgija , beograd1960' , BobbyPeruAd , aca72 , epikur69 , testuser1234 , jimco , GRT7 , simkes , chadjox , Gorolomac , aleksapet , gor , vlalos1967 , lopatarbb , IVICARUSIC



0 user(s) are reading this topic

0 members, 0 guests, 0 anonymous users