Jump to content

Dobrodošli na Balkandownload.org
Tražite domaće knjige, exyu magazine, sinhronizirane crtane filmove, PC i ostale igre, strane i domaće filmove, dokumentarce, stranu i domaću muziku, itd. ? Ne morate tražiti dalje jer sve ćete to naći kod nas, uredno postavljeno i spremno za download. Osim toga registracijom možete sudjelovati u raznim postojećim temama na forumu, otvarati nove teme, sudjelovati u chatu i još mnogo toga. Ako već imaš otvoren račun, logiraj se ovde ,a ako želiš saznati zašto smo najbolji otvori novi račun i uverite se sami :)
Photo

Guca! (2006)


3 replies to this topic

#1
Zoran_

Zoran_

    Gold Member

  • VIP
  • PipPipPipPipPipPip
  • 5,984 posts
  • 149161 thanks

Guca! (2006)


Guca2006.png

imdb6.jpg

Please Login or Register to see this Hidden Content


Julijana, 16-godišnja cerka najveceg belog trubaca Sacma Trandafilovica, zaljubi se u vršnjaka Romea, perspektivnog trubaca iz romskog orkestra Sandokanovih Tigrova. Sacmo rezigniran Romeovom bojom kože, ucini sve da ih razdvoji i zabrani ljubav. Ipak, kao strasni obožavalac Luja Amstronga, po kojem nosi nadimak, Sacmo obeca na svecanom porodicnom skupu da ce se odreci svojih rasistickih predrasuda.

 

Molbe za moje linkove, šaljite na PP.

 

Zabranjeno je kopiranje mojih linkova,reupload i postavljanje na druge forume!


Thanked by 25 Members:
StefanUžice , Sesula , mpaliska , cosmopoly , miliandjelijater , AleksLapovo , JasminaNOVA , theserbianblack , bezdread , zoran1967 , xyz013 , spammesharp , gumeni , jasna011 , plavi59 , luxradio , Stefan3 , urs517 , mico1982 , sr679 , Brky1950 , CRO.max.w , mesele , juraj833 , veljo-p

#2
Wolf 13

Wolf 13

    Advanced Member

  • Members
  • PipPipPip
  • 426 posts
  • 33356 thanks
Guca! (2006) DVDrip AC3 5.1 x264 by Wolf
(MKV) HQ
 
9w94tR4.jpg
 

Please Login or Register to see this Hidden Content

 

General
Unique ID                   : 283120870458172634779497673488979670153 (0xD4FF18A28169A31B51BF9233364F3489)
Complete name               : Guca! (2006) DVDrip AC3 5.1 x264 by Wolf.mkv
Format                      : Matroska
Format version              : Version 4
File size                   : 1.08 GiB
Duration                    : 1 h 28 min
Overall bit rate            : 1 757 kb/s
Encoded date                : UTC 2018-12-23 20:59:51 / UTC 2018-12-23T11:29:19Z
Writing application         : mkvmerge v29.0.0 ('Like It Or Not') 64-bit
Writing library             : libebml v1.3.6 + libmatroska v1.4.9 / Lavf57.7.2
 
Video
ID                          : 1
Format                      : AVC
Format/Info                 : Advanced Video Codec
Format profile              : [email protected]
Format settings             : CABAC / 8 Ref Frames
Format settings, CABAC      : Yes
Format settings, ReFrames   : 8 frames
Codec ID                    : V_MPEG4/ISO/AVC
Duration                    : 1 h 28 min
Bit rate                    : 1 500 kb/s
Width                       : 712 pixels
Height                      : 552 pixels
Display aspect ratio        : 1.85:1
Original display aspect rat : 1.85:1
Frame rate mode             : Constant
Frame rate                  : 25.000 FPS
Color space                 : YUV
Chroma subsampling          : 4:2:0
Bit depth                   : 8 bits
Scan type                   : Progressive
Bits/(Pixel*Frame)          : 0.153
Stream size                 : 923 MiB (83%)
Title                       : Guca! (2006)
Writing library             : x264 core 155 r2901 7d0ff22
Encoding settings           : cabac=1 / ref=8 / deblock=1:-1:-1 / analyse=0x3:0x133 / me=umh / subme=9 / psy=1 / psy_rd=1.00:0.15 / mixed_ref=1 / me_range=16 / chroma_me=1 / trellis=2 / 8x8dct=1 / cqm=0 / deadzone=21,11 / fast_pskip=1 / chroma_qp_offset=-3 / threads=6 / lookahead_threads=1 / sliced_threads=0 / nr=0 / decimate=1 / interlaced=0 / bluray_compat=0 / constrained_intra=0 / bframes=3 / b_pyramid=2 / b_adapt=2 / b_bias=0 / direct=3 / weightb=1 / open_gop=0 / weightp=2 / keyint=250 / keyint_min=25 / scenecut=40 / intra_refresh=0 / rc_lookahead=60 / rc=2pass / mbtree=1 / bitrate=1500 / ratetol=1.0 / qcomp=0.60 / qpmin=0 / qpmax=69 / qpstep=4 / cplxblur=20.0 / qblur=0.5 / vbv_maxrate=300000 / vbv_bufsize=300000 / nal_hrd=none / filler=0 / ip_ratio=1.40 / aq=1:1.00
Language                    : Serbian
Default                     : Yes
Forced                      : No
Color range                 : Limited
Color primaries             : BT.601 PAL
Transfer characteristics    : BT.709
Matrix coefficients         : BT.601
Statistics Tags Issue       : mkvmerge v29.0.0 ('Like It Or Not') 64-bit 2018-12-23 20:59:51 / mkvmerge v29.0.0 ('Like It Or Not') 64-bit 2018-12-23 20:59:51 / UTC 2018-12-23T11:29:19Z
FromStats_BitRate           : 1499685
FromStats_Duration          : 01:28:00.960000000
FromStats_FrameCount        : 132024
FromStats_StreamSize        : 989972524
 
Audio
ID                          : 2
Format                      : AC-3
Format/Info                 : Audio Coding 3
Commercial name             : Dolby Digital
Codec ID                    : A_AC3
Duration                    : 1 h 28 min
Bit rate mode               : Constant
Bit rate                    : 256 kb/s
Channel(s)                  : 6 channels
Channel layout              : L R C LFE Ls Rs
Sampling rate               : 48.0 kHz
Frame rate                  : 31.250 FPS (1536 SPF)
Bit depth                   : 16 bits
Compression mode            : Lossy
Stream size                 : 161 MiB (15%)
Title                       : Guca! (2006)
Language                    : Serbian
Service kind                : Complete Main
Default                     : Yes
Forced                      : No
Statistics Tags Issue       : mkvmerge v29.0.0 ('Like It Or Not') 64-bit 2018-12-23 20:59:51 / mkvmerge v29.0.0 ('Like It Or Not') 64-bit 2018-12-23 20:59:51 / UTC 2018-12-23T11:29:19Z
FromStats_BitRate           : 256000
FromStats_Duration          : 01:28:00.992000000
FromStats_FrameCount        : 165031
FromStats_StreamSize        : 168991744
 
Text
ID                          : 3
Format                      : UTF-8
Codec ID                    : S_TEXT/UTF8
Codec ID/Info               : UTF-8 Plain Text
Title                       : G U Č A
Language                    : Serbian
Default                     : Yes
Forced                      : No
Statistics Tags Issue       : mkvmerge v29.0.0 ('Like It Or Not') 64-bit 2018-12-23 20:59:51 / mkvmerge v29.0.0 ('Like It Or Not') 64-bit 2018-12-23 20:59:51 / UTC 2018-12-23T11:29:19Z
FromStats_BitRate           : 23
FromStats_Duration          : 01:25:00.655000000
FromStats_FrameCount        : 352
FromStats_StreamSize        : 14936
 
epYscVA.png
Hidden Content
You'll be able to see the hidden content once you thank this post.
 
7J0qriN.png
PHgXVUP.jpg

Edited by Wolf 13, 23 December 2018 - 23:43.


Thanked by 45 Members:
zakisamoud , 303808909 , minhadsadik , color202 , b50andi , chefko , StefanUžice , MiraDr , najnoviji600 , Inche , rafael13 , danep , toco222 , MaliIgicGregor , 011gogo , matthaios , nixonns , Urosito , danijeladanijel , zumi2 , marbar306 , goran dr , bagirin , cosmopoly , PucaPukiBrat , miliandjelijater , AleksLapovo , brankoz13 , mikula11 , bezdread , zoran1967 , spavicic , xyz013 , grof65 , bproblem , spammesharp , gumeni , jasna011 , liquid , PEKIPEKICA , Zelenac1 , plavi59 , luxradio , Stefan3 , bratobulje

#3
nikolakralj100

nikolakralj100

    Advanced Member

  • Members
  • PipPipPip
  • 346 posts
  • 20492 thanks

DVDr

 

jHFWLkI.jpg

 

yerunYx.jpg

 

Hidden Content
You'll be able to see the hidden content once you thank this post.


Thanked by 25 Members:
zakisamoud , 303808909 , minhadsadik , color202 , StefanUžice , rafael13 , MaliIgicGregor , novicanovica , Sesula , liquid , matthaios , jovicai , Urosito , danijeladanijel , matic87 , milan7656 , siljo , dzekula , cosmopoly , Bozidar81 , mostar8 , caki1980 , dakle , opetopet , AleksLapovo

#4
Zoran_

Zoran_

    Gold Member

  • VIP
  • PipPipPipPipPipPip
  • 5,984 posts
  • 149161 thanks
Guca! (2006)
 
 
Guca2006.png
 
Su6Ksi6.jpg
 

Please Login or Register to see this Hidden Content

 
Julijana, 16-godišnja cerka najveceg belog trubaca Sacma Trandafilovica, zaljubi se u vršnjaka Romea, perspektivnog trubaca iz romskog orkestra Sandokanovih Tigrova. Sacmo rezigniran Romeovom bojom kože, ucini sve da ih razdvoji i zabrani ljubav. Ipak, kao strasni obožavalac Luja Amstronga, po kojem nosi nadimak, Sacmo obeca na svecanom porodicnom skupu da ce se odreci svojih rasistickih predrasuda.
 
d0t55534lu6.png
 
Guca2006.avi.gif
 
Guca2006.avi.jpg
 
Oets6ur.gif
 
Guca! (2006) DVDRip.XviD.avi
 
SFYUbuP.jpg
 
Hidden Content
You'll be able to see the hidden content once you thank this post.

Molbe za moje linkove, šaljite na PP.

 

Zabranjeno je kopiranje mojih linkova,reupload i postavljanje na druge forume!


Thanked by 19 Members:
zakisamoud , goransokolovic.fr , 303808909 , minhadsadik , nikollla , color202 , bogibond , kanki , tejicma , danep , kockari , Cocco Bill , MaliIgicGregor , tgv , Sesula , Korto74 , vrdule , 011gogo , Biotloneta



0 user(s) are reading this topic

0 members, 0 guests, 0 anonymous users