Jump to content

Dobrodošli na Balkandownload.org
Tražite domaće knjige, exyu magazine, sinhronizirane crtane filmove, PC i ostale igre, strane i domaće filmove, dokumentarce, stranu i domaću muziku, itd. ? Ne morate tražiti dalje jer sve ćete to naći kod nas, uredno postavljeno i spremno za download. Osim toga registracijom možete sudjelovati u raznim postojećim temama na forumu, otvarati nove teme, sudjelovati u chatu i još mnogo toga. Ako već imaš otvoren račun, logiraj se ovde ,a ako želiš saznati zašto smo najbolji otvori novi račun i uverite se sami :)
Photo

Seven Little Australians (1973)


  • Please log in to reply
No replies to this topic

#1
LEMONZOO

LEMONZOO

    Advanced Member

  • VIP
  • PipPipPip
  • 739 posts
  • 3071 thanks
  • LocationGavran Mahala
Seven Little Australians (1973)
 
Seven_Little.jpg
 

Please Login or Register to see this Hidden Content

 
Captain Wolcott is a widower with seven children. He marries again and his new wife takes on all the trials of bringing up seven spirited children. They have many adventures, especially one daughter Helen, commonly known as Judy.
 

General

Format                                   : AVI
Format/Info                              : Audio Video Interleave
File size                                : 206 MiB
Duration                                 : 28mn 27s
Overall bit rate mode                    : Variable
Overall bit rate                         : 1 014 Kbps
Writing application                      : VirtualDubMod 1.5.10.2 (build 2540/release)
Writing library                          : VirtualDubMod build 2540/release
 
Video
ID                                       : 0
Format                                   : MPEG-4 Visual
Format profile                           : Advanced [email protected]
Format settings, BVOP                    : 2
Format settings, QPel                    : No
Format settings, GMC                     : No warppoints
Format settings, Matrix                  : Default (H.263)
Muxing mode                              : Packed bitstream
Codec ID                                 : XVID
Codec ID/Hint                            : XviD
Duration                                 : 28mn 27s
Bit rate                                 : 874 Kbps
Width                                    : 592 pixels
Height                                   : 448 pixels
Display aspect ratio                     : 4:3
Frame rate                               : 25.000 fps
Color space                              : YUV
Chroma subsampling                       : 4:2:0
Bit depth                                : 8 bits
Scan type                                : Progressive
Compression mode                         : Lossy
Bits/(Pixel*Frame)                       : 0.132
Stream size                              : 178 MiB (86%)
Writing library                          : XviD 1.1.0 (UTC 2005-11-22)
 
Audio
ID                                       : 1
Format                                   : MPEG Audio
Format version                           : Version 1
Format profile                           : Layer 3
Mode                                     : Joint stereo
Codec ID                                 : 55
Codec ID/Hint                            : MP3
Duration                                 : 28mn 27s
Bit rate mode                            : Variable
Bit rate                                 : 128 Kbps
Channel count                            : 2 channels
Sampling rate                            : 48.0 KHz
Compression mode                         : Lossy
Stream size                              : 26.0 MiB (13%)
Alignment                                : Aligned on interleaves
Interleave, duration                     : 24 ms (0.60 video frame)
Interleave, preload duration             : 460 ms
Writing library                          : LAME3.90.
Encoding settings                        : -m j -V 4 -q 2 -lowpass 17.6 --abr 128
 
sevenlittleaustralianxwsct.jpg
 
sevenlittleaustralianptstb.jpg
 
sevenlittleaustralianips3v.jpg
 
sevenlittleaustralianwls0j.jpg
 
sevenlittleaustralian1ds1z.jpg
 
sevenlittleaustralian07ssi.jpg
 
sevenlittleaustraliangrsjk.jpg
 
sevenlittleaustralian98s15.jpg
 
sevenlittleaustraliansxsty.jpg
 
sevenlittleaustralianw0sv3.jpg
 
sevenlittleaustralianwxsgp.jpg
Hidden Content
You'll be able to see the hidden content once you thank this post.
 
Password:

Please Login or Register to see this Hidden Content

 
Credits to original uploader.

Edited by LEMONZOO, 21 September 2014 - 22:03.





0 user(s) are reading this topic

0 members, 0 guests, 0 anonymous users