Jump to content

Dobrodošli na Balkandownload.org
Tražite domaće knjige, exyu magazine, sinhronizirane crtane filmove, PC i ostale igre, strane i domaće filmove, dokumentarce, stranu i domaću muziku, itd. ? Ne morate tražiti dalje jer sve ćete to naći kod nas, uredno postavljeno i spremno za download. Osim toga registracijom možete sudjelovati u raznim postojećim temama na forumu, otvarati nove teme, sudjelovati u chatu i još mnogo toga. Ako već imaš otvoren račun, logiraj se ovde ,a ako želiš saznati zašto smo najbolji otvori novi račun i uverite se sami :)
Photo

Sitting Target (1972)


  • Please log in to reply
1 reply to this topic

#1
LEMONZOO

LEMONZOO

    Advanced Member

  • VIP
  • PipPipPip
  • 739 posts
  • 3101 thanks
  • LocationGavran Mahala
Sitting Target (1972) Dvdrip X264-CG
 
sittstkng.jpg
 

Please Login or Register to see this Hidden Content

 
Imprisoned Harry Lomart is a vicious, brute of a man and yet he is prepared to do his long jail term as he is confident that on his release his beautiful wife Pat will be waiting for him, but a visit from Pat brings him his worst nightmare.
 

General

Unique ID                                : 172025774162685697769793256658881639762 (0x816AF57ED64F282DBEA4BB798A5E7552)
Complete name                            : Sitting.Target.1972.DVDrip.x264-CG.mkv
Format                                   : Matroska
Format version                           : Version 2
File size                                : 1.41 GiB
Duration                                 : 1h 32mn
Overall bit rate                         : 2 167 Kbps
Movie name                               : Sitting Target (1972)
Encoded date                             : UTC 2014-02-13 08:35:25
Writing application                      : mkvmerge v3.4.0 ('Rapunzel') built on May 15 2010 09:38:20
Writing library                          : libebml v0.8.0 + libmatroska v0.9.0
 
Video
ID                                       : 1
Format                                   : AVC
Format/Info                              : Advanced Video Codec
Format profile                           : [email protected]
Format settings, CABAC                   : Yes
Format settings, ReFrames                : 9 frames
Codec ID                                 : V_MPEG4/ISO/AVC
Duration                                 : 1h 32mn
Bit rate                                 : 1 952 Kbps
Width                                    : 720 pixels
Height                                   : 480 pixels
Display aspect ratio                     : 16:9
Frame rate mode                          : Variable / Variable
Frame rate                               : 23.976 fps
Standard                                 : NTSC
Color space                              : YUV
Chroma subsampling                       : 4:2:0
Bit depth                                : 8 bits
Scan type                                : Progressive
Bits/(Pixel*Frame)                       : 0.236
Stream size                              : 1.25 GiB (89%)
Writing library                          : x264 core 120
Language                                 : English
Default                                  : Yes
Forced                                   : No
Color primaries                          : BT.601-6 525, BT.1358 525, BT.1700 NTSC, SMPTE 170M
Transfer characteristics                 : BT.709-5, BT.1361
Matrix coefficients                      : BT.601-6 525, BT.1358 525, BT.1700 NTSC, SMPTE 170M
 
Audio
ID                                       : 2
Format                                   : AC-3
Format/Info                              : Audio Coding 3
Mode extension                           : CM (complete main)
Format settings, Endianness              : Big
Codec ID                                 : A_AC3
Duration                                 : 1h 32mn
Bit rate mode                            : Constant
Bit rate                                 : 192 Kbps
Channel(s)                               : 2 channels
Channel positions                        : Front: L R
Sampling rate                            : 48.0 KHz
Bit depth                                : 16 bits
Compression mode                         : Lossy
Stream size                              : 128 MiB (9%)
Language                                 : English
Default                                  : Yes
Forced                                   : No
 
Menu
00:00:00.000                             : en:Chapter 1
00:02:28.648                             : en:Chapter 2
00:04:12.252                             : en:Chapter 3
00:08:44.524                             : en:Chapter 4
00:11:43.202                             : en:Chapter 5
00:14:15.855                             : en:Chapter 6
00:17:58.077                             : en:Chapter 7
00:19:50.689                             : en:Chapter 8
00:24:10.449                             : en:Chapter 9
00:27:10.629                             : en:Chapter 10
00:30:34.833                             : en:Chapter 11
00:32:44.963                             : en:Chapter 12
00:36:58.216                             : en:Chapter 13
00:39:07.345                             : en:Chapter 14
00:43:22.600                             : en:Chapter 15
00:45:20.718                             : en:Chapter 16
00:48:25.402                             : en:Chapter 17
00:51:03.060                             : en:Chapter 18
00:53:06.183                             : en:Chapter 19
00:56:29.386                             : en:Chapter 20
00:59:08.044                             : en:Chapter 21
01:02:10.727                             : en:Chapter 22
 
9rxISmn.png
 
Y9H1ap6.png
 
f3z67J8.png
 
wHQ4gQO.png
 
Zsa1Akq.png
 

Please Login or Register to see this Hidden Content

English subtitle:

Please Login or Register to see this Hidden Content


Edited by LEMONZOO, 29 May 2015 - 19:59.


#2
LEMONZOO

LEMONZOO

    Advanced Member

  • VIP
  • PipPipPip
  • 739 posts
  • 3101 thanks
  • LocationGavran Mahala

Ubačen novi link.






0 user(s) are reading this topic

0 members, 0 guests, 0 anonymous users