Jump to content

Dobrodošli na Balkandownload.org
Tražite domaće knjige, exyu magazine, sinhronizirane crtane filmove, PC i ostale igre, strane i domaće filmove, dokumentarce, stranu i domaću muziku, itd. ? Ne morate tražiti dalje jer sve ćete to naći kod nas, uredno postavljeno i spremno za download. Osim toga registracijom možete sudjelovati u raznim postojećim temama na forumu, otvarati nove teme, sudjelovati u chatu i još mnogo toga. Ako već imaš otvoren račun, logiraj se ovde ,a ako želiš saznati zašto smo najbolji otvori novi račun i uverite se sami :)
Photo

Kommissar Rex (1994) AKA Inspector Rex

1994 austrija

  • Please log in to reply
1 reply to this topic

#1
LEMONZOO

LEMONZOO

    Advanced Member

  • VIP
  • PipPipPip
  • 739 posts
  • 2988 thanks
  • LocationGavran Mahala

Kommissar Rex (1994) AKA Inspector Rex
 
kommissar_rexaiesd.jpg
 

Please Login or Register to see this Hidden Content

 
A recently divorced cop adopts a police dog who lost his former companion, together they solve crimes in and around Vienna.
 
Season 1
 
Hidden Content
You'll be able to see the hidden content once you thank this post.
 
Season 2
 
Hidden Content
You'll be able to see the hidden content once you thank this post.
 
Season 3
 
Hidden Content
You'll be able to see the hidden content once you thank this post.
 
Season 4
 
Hidden Content
You'll be able to see the hidden content once you thank this post.
 
Season 5
 
Hidden Content
You'll be able to see the hidden content once you thank this post.
 
Season 6
 
Hidden Content
You'll be able to see the hidden content once you thank this post.
 
Season 7
 
Hidden Content
You'll be able to see the hidden content once you thank this post.
 
Season 8
 
Hidden Content
You'll be able to see the hidden content once you thank this post.
 
Season 9
 
Hidden Content
You'll be able to see the hidden content once you thank this post.
 
Season 10
 
Hidden Content
You'll be able to see the hidden content once you thank this post.
 
English subtitles included.
 
Domaći titl:

Please Login or Register to see this Hidden Content


Edited by LEMONZOO, 22 September 2014 - 14:45.


Thanked by 5 Members:
sadko , Ladyteen15 , 123andy123 , kvasvesna , noel7

#2
LEMONZOO

LEMONZOO

    Advanced Member

  • VIP
  • PipPipPip
  • 739 posts
  • 2988 thanks
  • LocationGavran Mahala

Kommissar Rex (1994) AKA Inspector Rex

20120228_commissario_vauxy.jpg

Please Login or Register to see this Hidden Content

Kommissar Rex is a police procedural drama originally made in Austria and aired from 1994 to 2004. In 2008 the series was revived under Austrian-Italian production, and has since 2009 been made fully in Italy, with occasional episodes set in Austria. The show follows the German Shepherd police dog Rex, his partners and the rest of the team at the Vienna Kriminalpolizei homicide unit, as they work together to solve crimes. Since 2008, the show has been set in Rome.

Inspector.Rex.S13.DVDRip.XviD-RUNNER

General
Complete name               : runner.inspector.rex.s13e01.the.champion.dvdrip.xvid.avi
Format                      : AVI
Format/Info                 : Audio Video Interleave
File size                   : 350 MiB
Duration                    : 45mn 45s
Overall bit rate mode       : Variable
Overall bit rate            : 1 069 Kbps
Writing application         : VirtualDubMod 1.5.10.2 (build 2540/release)
Writing library             : VirtualDubMod build 2540/release

Video
ID                          : 0
Format                      : MPEG-4 Visual
Format profile              : Advanced [email protected]
Format settings, BVOP       : 2
Format settings, QPel       : No
Format settings, GMC        : No warppoints
Format settings, Matrix     : Default (H.263)
Codec ID                    : XVID
Codec ID/Hint               : XviD
Duration                    : 45mn 45s
Bit rate                    : 925 Kbps
Width                       : 640 pixels
Height                      : 352 pixels
Display aspect ratio        : 16:9
Frame rate                  : 25.000 fps
Color space                 : YUV
Chroma subsampling          : 4:2:0
Bit depth                   : 8 bits
Scan type                   : Progressive
Compression mode            : Lossy
Bits/(Pixel*Frame)          : 0.164
Stream size                 : 303 MiB (86%)
Writing library             : XviD 64

Audio
ID                          : 1
Format                      : MPEG Audio
Format version              : Version 1
Format profile              : Layer 3
Mode                        : Joint stereo
Codec ID                    : 55
Codec ID/Hint               : MP3
Duration                    : 45mn 45s
Bit rate mode               : Variable
Bit rate                    : 128 Kbps
Channel(s)                  : 2 channels
Sampling rate               : 48.0 KHz
Compression mode            : Lossy
Stream size                 : 43.0 MiB (12%)
Alignment                   : Aligned on interleaves
Interleave, duration        : 24 ms (0.60 video frame)
Interleave, preload duratio : 483 ms
Writing library             : LAME3.90.
Encoding settings           : -m j -V 4 -q 2 -lowpass 17.6 --abr 128


runner.inspector.rex.n8ub0.jpg

runner.inspector.rex.08ugt.jpg

runner.inspector.rex.s3u5s.jpg

runner.inspector.rex.a2utg.jpg

Hidden Content
You'll be able to see the hidden content once you thank this post.

Titlovi:

Please Login or Register to see this Hidden Content



Thanked by 6 Members:
ARKAN , sadko , srdjanz1911 , vizigot , 123andy123 , noel7




Also tagged with one or more of these keywords: 1994, austrija

0 user(s) are reading this topic

0 members, 0 guests, 0 anonymous users