Jump to content

Dobrodošli na Balkandownload.org
Tražite domaće knjige, exyu magazine, sinhronizirane crtane filmove, PC i ostale igre, strane i domaće filmove, dokumentarce, stranu i domaću muziku, itd. ? Ne morate tražiti dalje jer sve ćete to naći kod nas, uredno postavljeno i spremno za download. Osim toga registracijom možete sudjelovati u raznim postojećim temama na forumu, otvarati nove teme, sudjelovati u chatu i još mnogo toga. Ako već imaš otvoren račun, logiraj se ovde ,a ako želiš saznati zašto smo najbolji otvori novi račun i uverite se sami :)
Photo

Jesen stize, dunjo moja (2004)


2 replies to this topic

#1
Zoran_

Zoran_

    Gold Member

  • VIP
  • PipPipPipPipPipPip
  • 5,984 posts
  • 149254 thanks

Jesen stize, dunjo moja (2004)


Jesenstizedunjomoja2004.png

imdb6.jpg
 

Please Login or Register to see this Hidden Content

Negde u Banatu 1914 godine. Bezbrizno detinjstvo Save, Marije i Petrasina prekida pocetak prvog svetskog rata. Sava i Petrasin, i protiv svoje volje, odlaze da sluze vojsku austro-ugarske monarhije. Cetiri godine iza toga, rat je zavrsen i Sava se vraca kuci. Docekuje ga Marija i njegov najbolji drug Petrasin koji je ranije dosao iz rata, jer je na frontu izgubio ruku. Na putu njihove potpune srece, isprecio se Savin otac, koji pored tri cerke, ne zeli da hrani nova gladna usta! Sava posle tuce sa ocem, napusta selo i odlazi preko Tise u varos. Marija ostaje ucveljena i nemocna. Sava u varosi nalazi posao u mlinu bogatog Grandfilda. Njegova cerka Anica je bacila oko na Savu. Brizan otac Grandfild, predlaze Savi da se ozeni sa Anicom…


Molbe za moje linkove, šaljite na PP.

 

Zabranjeno je kopiranje mojih linkova,reupload i postavljanje na druge forume!


Thanked by 59 Members:
Italic7 , zvonko47 , Dijana1974 , toto69mk , vladimir sramka , Zelenac1 , vecager , cigoyner , TeodorM1976 , 011gogo , rockz777 , Karabaaja , tamara1505tamara , danijeladanijel , jovicai , kolobrod , Ilke91 , mpaliska , retar , lokomoko , iudovcev , zeka32 , eizax , slavko93 , Dadodado , milan7656 , sajenkovic , sasha70 , pipak , amres , brankoz13 , nenadan , miliandjelijater , Melitta , Xardas , Maxim88 , tihi1204 , marek_05 , Nemke91SRB , Zare94 , patriksvejzi , Dusan Torlakovic , urs517 , pepe000 , setac , Chaura991 , Ismarj , dejane , Urosito , bax1977 , blazenko72 , marinakl , goc_man , vesko.nik , ludwig , dakle , Kosta92 , Ljopatar , BITANGA91

#2
Wolf 13

Wolf 13

    Advanced Member

  • Members
  • PipPipPip
  • 426 posts
  • 33403 thanks
Jesen stize, dunjo moja (2004) DVDrip E-AC3 x264 by Wolf
(MKV)
 
mjQxbkZ.png
 

Please Login or Register to see this Hidden Content

 

General
Unique ID                   : 16746606494316506827285640304074561887 (0xC99477289293D4F421B53518E32195F)
Complete name               : Jesen stize, dunjo moja (2004) DVDrip E-AC3 x264 by Wolf.mkv
Format                      : Matroska
Format version              : Version 4 / Version 2
File size                   : 1.10 GiB
Duration                    : 1 h 29 min
Overall bit rate            : 1 758 kb/s
Encoded date                : UTC 2018-11-29 17:48:13 / UTC 2018-11-29T15:39:45Z
Writing application         : mkvmerge v28.2.0 ('The Awakening') 64-bit
Writing library             : libebml v1.3.6 + libmatroska v1.4.9 / Lavf57.7.2
 
Video
ID                          : 1
Format                      : AVC
Format/Info                 : Advanced Video Codec
Format profile              : [email protected]
Format settings             : CABAC / 8 Ref Frames
Format settings, CABAC      : Yes
Format settings, ReFrames   : 8 frames
Codec ID                    : V_MPEG4/ISO/AVC
Duration                    : 1 h 29 min
Bit rate                    : 1 500 kb/s
Width                       : 708 pixels
Height                      : 414 pixels
Display aspect ratio        : 1.85:1
Frame rate mode             : Constant
Frame rate                  : 25.000 FPS
Color space                 : YUV
Chroma subsampling          : 4:2:0
Bit depth                   : 8 bits
Scan type                   : Progressive
Bits/(Pixel*Frame)          : 0.205
Stream size                 : 938 MiB (83%)
Title                       : Jesen stize, dunjo moja (2004)
Writing library             : x264 core 155 r2901 7d0ff22
Encoding settings           : cabac=1 / ref=8 / deblock=1:-1:-1 / analyse=0x3:0x133 / me=umh / subme=9 / psy=1 / psy_rd=1.00:0.15 / mixed_ref=1 / me_range=16 / chroma_me=1 / trellis=2 / 8x8dct=1 / cqm=0 / deadzone=21,11 / fast_pskip=1 / chroma_qp_offset=-3 / threads=6 / lookahead_threads=1 / sliced_threads=0 / nr=0 / decimate=1 / interlaced=0 / bluray_compat=0 / constrained_intra=0 / bframes=3 / b_pyramid=2 / b_adapt=2 / b_bias=0 / direct=3 / weightb=1 / open_gop=0 / weightp=2 / keyint=250 / keyint_min=25 / scenecut=40 / intra_refresh=0 / rc_lookahead=60 / rc=2pass / mbtree=1 / bitrate=1500 / ratetol=1.0 / qcomp=0.60 / qpmin=0 / qpmax=69 / qpstep=4 / cplxblur=20.0 / qblur=0.5 / vbv_maxrate=300000 / vbv_bufsize=300000 / nal_hrd=none / filler=0 / ip_ratio=1.40 / aq=1:1.00
Language                    : Serbian
Default                     : Yes
Forced                      : No
Color range                 : Limited
Color primaries             : BT.601 PAL
Transfer characteristics    : BT.709
Matrix coefficients         : BT.601
Statistics Tags Issue       : mkvmerge v28.2.0 ('The Awakening') 64-bit 2018-11-29 17:48:13 / mkvmerge v28.2.0 ('The Awakening') 64-bit 2018-11-29 17:48:13 / UTC 2018-11-29T15:39:45Z
FromStats_BitRate           : 1500247
FromStats_Duration          : 01:29:25.520000000
FromStats_FrameCount        : 134138
FromStats_StreamSize        : 1006201322
 
Audio
ID                          : 2
Format                      : E-AC-3
Format/Info                 : Enhanced Audio Coding 3
Codec ID                    : A_EAC3
Duration                    : 1 h 29 min
Bit rate mode               : Constant
Bit rate                    : 256 kb/s
Channel(s)                  : 6 channels
Channel positions           : Front: L C R, Side: L R, LFE
Sampling rate               : 48.0 kHz
Frame rate                  : 187.500 FPS (256 SPF)
Compression mode            : Lossy
Delay relative to video     : -5 ms
Stream size                 : 164 MiB (15%)
Title                       : Jesen stize, dunjo moja (2004)
Language                    : Serbian
Service kind                : Complete Main
Default                     : Yes
Forced                      : No
Statistics Tags Issue       : mkvmerge v28.2.0 ('The Awakening') 64-bit 2018-11-29 17:48:13 / mkvmerge v28.2.0 ('The Awakening') 64-bit 2018-11-29 17:48:13 / UTC 2018-11-29T15:39:45Z
FromStats_BitRate           : 256000
FromStats_Duration          : 01:29:25.504000000
FromStats_FrameCount        : 167672
FromStats_StreamSize        : 171696128
 
epYscVA.png
Hidden Content
You'll be able to see the hidden content once you thank this post.
 
WcV2tlI.png
OEqgEe9.jpg


Thanked by 47 Members:
lokomoko , darkan , mackosopa , gaus , Italic7 , goran.ulemek87 , lilke , miki99 , zvonko47 , Dijana1974 , b50andi , toto69mk , jasminh , chefko , Shey , ivannk82 , billypiton , vladimir sramka , danijeladanijel , tonitaxi , borisque , Chika_Miki , rafael13 , ciduuu , xection , Homss , dadokr , opetopet , icaleptir , toco222 , nemusyeah , kockari , TeodorM1976 , salgija , 00dragan00 , senad007 , anelkos , Zelenac1 , rusko , danep , derevo123 , subih , 011gogo , rockz777 , Smajo , pzetar , retar

#3
Zoran_

Zoran_

    Gold Member

  • VIP
  • PipPipPipPipPipPip
  • 5,984 posts
  • 149254 thanks
Jesen stize, dunjo moja (2004)
 
 
Jesenstizedunjomoja2004.png
 
Su6Ksi6.jpg
 

Please Login or Register to see this Hidden Content

 
Negde u Banatu 1914 godine. Bezbrizno detinjstvo Save, Marije i Petrasina prekida pocetak prvog svetskog rata. Sava i Petrasin, i protiv svoje volje, odlaze da sluze vojsku austro-ugarske monarhije. Cetiri godine iza toga, rat je zavrsen i Sava se vraca kuci. Docekuje ga Marija i njegov najbolji drug Petrasin koji je ranije dosao iz rata, jer je na frontu izgubio ruku. Na putu njihove potpune srece, isprecio se Savin otac, koji pored tri cerke, ne zeli da hrani nova gladna usta! Sava posle tuce sa ocem, napusta selo i odlazi preko Tise u varos. Marija ostaje ucveljena i nemocna. Sava u varosi nalazi posao u mlinu bogatog Grandfilda. Njegova cerka Anica je bacila oko na Savu. Brizan otac Grandfild, predlaze Savi da se ozeni sa Anicom…
 
Jesenstizedunjomoja2004.avi.gif
 
Jesenstizedunjomoja2004.avi.jpg
 
Oets6ur.gif
 
Jesen stize, dunjo moja (2004) DVDRip avi
 
SFYUbuP.jpg
 
Hidden Content
You'll be able to see the hidden content once you thank this post.

Molbe za moje linkove, šaljite na PP.

 

Zabranjeno je kopiranje mojih linkova,reupload i postavljanje na druge forume!


Thanked by 48 Members:
123654789 , lokomoko , jadjonbv , darkan , mackosopa , gaus , karlo cakanic , goransokolovic.fr , Italic7 , nvdsrs , Boss84 , boletovsinko , lilke , miki99 , zvonko47 , zorandju , bogibond , Dijana1974 , runjaa , legija037 , sloznabraca , dzsemo , Inche , zvezdas , dejar , brgud92 , Predrag74 , danijeladanijel , mixi , ciduuu , TeodorM1976 , tejicma , Milfir , xection , aca72 , Jokso , r2d2 , opetopet , salgija , icaleptir , cigoyner , MP22 , Cocco Bill , rango343 , goranjevic , Alamo74 , Gorolomac , toco222



0 user(s) are reading this topic

0 members, 0 guests, 0 anonymous users