Jump to content

Dobrodošli na Balkandownload.org
Tražite domaće knjige, exyu magazine, sinhronizirane crtane filmove, PC i ostale igre, strane i domaće filmove, dokumentarce, stranu i domaću muziku, itd. ? Ne morate tražiti dalje jer sve ćete to naći kod nas, uredno postavljeno i spremno za download. Osim toga registracijom možete sudjelovati u raznim postojećim temama na forumu, otvarati nove teme, sudjelovati u chatu i još mnogo toga. Ako već imaš otvoren račun, logiraj se ovde ,a ako želiš saznati zašto smo najbolji otvori novi račun i uverite se sami :)
Photo

Natasa (2001)


2 replies to this topic

#1
Zoran_

Zoran_

    Gold Member

  • VIP
  • PipPipPipPipPipPip
  • 5,984 posts
  • 149158 thanks
Natasa (2001)
 
 
Natasa2001.png
 
Su6Ksi6.jpg
 

Please Login or Register to see this Hidden Content

 
Glavni lik ovog filma je sedamnaestogodišnja devojka Nataša, ciji je otac, policijski inspektor, ubijen u nerazjašnjenom atentatu. Godinu dana kasnije, u vrtlogu vremena u kojem se rušikorumpirani sistem, gonjena svojim emotivnim haosom, odlucna je da sazna istinu, pa krece u bezglavu deciju osvetu. Raspeta izmedu ljubavi prema Marku, oženjenom prodavcu iz knjižare, i neplanirane zaštite koju joj nudi Kiza, Markov drug kriminalac, ona ipak nije ni svesna da decija igra prerasta u okrutnu i opasnu avanturu.

Molbe za moje linkove, šaljite na PP.

 

Zabranjeno je kopiranje mojih linkova,reupload i postavljanje na druge forume!


Thanked by 79 Members:

#2
Wolf 13

Wolf 13

    Advanced Member

  • Members
  • PipPipPip
  • 426 posts
  • 33350 thanks
Natasa (2001) DVDrip AC3 5.1 x264 by Wolf
(MKV)
 
S2Cvgja.jpg
 

Please Login or Register to see this Hidden Content

 

General
Unique ID                   : 180996990635146268883040523709798547620 (0x882AC09DFEDAE77FCD89218DA6F200A4)
Complete name               : Natasa (2001) DVDrip AC3 5.1 x264 by Wolf.mkv
Format                      : Matroska
Format version              : Version 4 / Version 2
File size                   : 1.11 GiB
Duration                    : 1 h 30 min
Overall bit rate            : 1 758 kb/s
Encoded date                : UTC 2018-12-12 16:22:23 / UTC 2018-12-12T13:12:19Z
Writing application         : mkvmerge v29.0.0 ('Like It Or Not') 64-bit
Writing library             : libebml v1.3.6 + libmatroska v1.4.9 / Lavf57.7.2
 
Video
ID                          : 1
Format                      : AVC
Format/Info                 : Advanced Video Codec
Format profile              : [email protected]
Format settings             : CABAC / 8 Ref Frames
Format settings, CABAC      : Yes
Format settings, ReFrames   : 8 frames
Codec ID                    : V_MPEG4/ISO/AVC
Duration                    : 1 h 30 min
Bit rate                    : 1 500 kb/s
Width                       : 690 pixels
Height                      : 442 pixels
Display aspect ratio        : 16:9
Original display aspect rat : 5:3
Frame rate mode             : Constant
Frame rate                  : 25.000 FPS
Color space                 : YUV
Chroma subsampling          : 4:2:0
Bit depth                   : 8 bits
Scan type                   : Progressive
Bits/(Pixel*Frame)          : 0.197
Stream size                 : 946 MiB (83%)
Title                       : Natasa (2001)
Writing library             : x264 core 155 r2901 7d0ff22
Encoding settings           : cabac=1 / ref=8 / deblock=1:-1:-1 / analyse=0x3:0x133 / me=umh / subme=9 / psy=1 / psy_rd=1.00:0.15 / mixed_ref=1 / me_range=16 / chroma_me=1 / trellis=2 / 8x8dct=1 / cqm=0 / deadzone=21,11 / fast_pskip=1 / chroma_qp_offset=-3 / threads=6 / lookahead_threads=1 / sliced_threads=0 / nr=0 / decimate=1 / interlaced=0 / bluray_compat=0 / constrained_intra=0 / bframes=3 / b_pyramid=2 / b_adapt=2 / b_bias=0 / direct=3 / weightb=1 / open_gop=0 / weightp=2 / keyint=250 / keyint_min=25 / scenecut=40 / intra_refresh=0 / rc_lookahead=60 / rc=2pass / mbtree=1 / bitrate=1500 / ratetol=1.0 / qcomp=0.60 / qpmin=0 / qpmax=69 / qpstep=4 / cplxblur=20.0 / qblur=0.5 / vbv_maxrate=300000 / vbv_bufsize=300000 / nal_hrd=none / filler=0 / ip_ratio=1.40 / aq=1:1.00
Language                    : Serbian
Default                     : Yes
Forced                      : No
Color range                 : Limited
Color primaries             : BT.601 PAL
Transfer characteristics    : BT.709
Matrix coefficients         : BT.601
Statistics Tags Issue       : mkvmerge v29.0.0 ('Like It Or Not') 64-bit 2018-12-12 16:22:23 / mkvmerge v29.0.0 ('Like It Or Not') 64-bit 2018-12-12 16:22:23 / UTC 2018-12-12T13:12:19Z
FromStats_BitRate           : 1500271
FromStats_Duration          : 01:30:06.840000000
FromStats_FrameCount        : 135171
FromStats_StreamSize        : 1013966143
 
Audio
ID                          : 2
Format                      : AC-3
Format/Info                 : Audio Coding 3
Codec ID                    : A_AC3
Duration                    : 1 h 30 min
Bit rate mode               : Constant
Bit rate                    : 256 kb/s
Channel(s)                  : 6 channels
Channel positions           : Front: L C R, Side: L R, LFE
Sampling rate               : 48.0 kHz
Frame rate                  : 31.250 FPS (1536 SPF)
Bit depth                   : 16 bits
Compression mode            : Lossy
Stream size                 : 165 MiB (15%)
Title                       : Natasa (2001)
Language                    : Serbian
Service kind                : Complete Main
Default                     : Yes
Forced                      : No
Statistics Tags Issue       : mkvmerge v29.0.0 ('Like It Or Not') 64-bit 2018-12-12 16:22:23 / mkvmerge v29.0.0 ('Like It Or Not') 64-bit 2018-12-12 16:22:23 / UTC 2018-12-12T13:12:19Z
FromStats_BitRate           : 256000
FromStats_Duration          : 01:30:06.784000000
FromStats_FrameCount        : 168962
FromStats_StreamSize        : 173017088
 
epYscVA.png
Hidden Content
You'll be able to see the hidden content once you thank this post.
 
k0wDcRZ.png
uo5r4Sg.jpg


Thanked by 55 Members:
milan199777 , pileboy , ivke 23 , 303808909 , superman , bataraka , lilke , qurbanize , urosm , toma07 , Grobar , cadjos , Radamant , vajtaun , chefko , ivannk82 , visnjavisnja , rafael13 , matic87 , dj1van , skituljko , danijeladanijel , merida85 , acika94 , tejo99 , danep , vlaha8 , dejan.petrovic , granamax , novicanovica , zagortnt , duledusko , dobagan rogić , BobbyPeruAd , Alamo74 , pelinkovac 654 , 8C805w , beograd1960' , tgv , Miki_Kiki_Riki , kresomirovic , zlaja67 , Sesula , retar , gigo2 , alexxxxa , Zelenac1 , Korto74 , opetopet , mikula11 , dopre , 011gogo , icaleptir , dadisajo , Biotloneta

#3
Zoran_

Zoran_

    Gold Member

  • VIP
  • PipPipPipPipPipPip
  • 5,984 posts
  • 149158 thanks
Natasa (2001)
 
 
Natasa2001.png
 
Su6Ksi6.jpg
 

Please Login or Register to see this Hidden Content

 
Glavni lik ovog filma je sedamnaestogodišnja devojka Nataša, ciji je otac, policijski inspektor, ubijen u nerazjašnjenom atentatu. Godinu dana kasnije, u vrtlogu vremena u kojem se rušikorumpirani sistem, gonjena svojim emotivnim haosom, odlucna je da sazna istinu, pa krece u bezglavu deciju osvetu. Raspeta izmedu ljubavi prema Marku, oženjenom prodavcu iz knjižare, i neplanirane zaštite koju joj nudi Kiza, Markov drug kriminalac, ona ipak nije ni svesna da decija igra prerasta u okrutnu i opasnu avanturu.
 
Natasa2001.avi.gif
 
Natasa2001.avi.jpg
 
Oets6ur.gif
 
Natasa (2001) DVDRip avi
 
SFYUbuP.jpg
 
Hidden Content
You'll be able to see the hidden content once you thank this post.

Molbe za moje linkove, šaljite na PP.

 

Zabranjeno je kopiranje mojih linkova,reupload i postavljanje na druge forume!


Thanked by 52 Members:
vojkan95 , arthurock177 , Jorgos , jadjonbv , goransokolovic.fr , pileboy , 303808909 , superman , bataraka , milanalorica , lilke , Verdeja , urosm , mladja70 , sloznabraca , lena1 , Grobar , cadjos , Dijana1974 , Radamant , zarkoe ekmedzic , TrickyTrix , Stefi_1997 , visnjavisnja , guzjan , Myco00 , MiraDr , Stefan16 , vanzemaljac92 , mackosopa , tejicma , merida85 , acika94 , kockari , tejo99 , Jokso , danep , mean machine , retype12345 , Korto74 , jumanjinz , dejan.petrovic , Miki_Kiki_Riki , kresomirovic , MP22 , Cocco Bill , bakiboys123 , Franci , zoran48 , opetopet , Alamo74 , miki-maus23



0 user(s) are reading this topic

0 members, 0 guests, 0 anonymous users