Jump to content

Dobrodošli na Balkandownload.org
Tražite domaće knjige, exyu magazine, sinhronizirane crtane filmove, PC i ostale igre, strane i domaće filmove, dokumentarce, stranu i domaću muziku, itd. ? Ne morate tražiti dalje jer sve ćete to naći kod nas, uredno postavljeno i spremno za download. Osim toga registracijom možete sudjelovati u raznim postojećim temama na forumu, otvarati nove teme, sudjelovati u chatu i još mnogo toga. Ako već imaš otvoren račun, logiraj se ovde ,a ako želiš saznati zašto smo najbolji otvori novi račun i uverite se sami :)
Photo

Nebeska udica (2000)


2 replies to this topic

#1
Zoran_

Zoran_

    Gold Member

  • VIP
  • PipPipPipPipPipPip
  • 5,984 posts
  • 149158 thanks

Nebeska udica (2000)


Nebeskaudica2000.png

imdb6.jpg
 

Please Login or Register to see this Hidden Content



Film prica o nekim ljudima u Srbiji koji treba da se suoce sa posledicama rata. Vecina njih jos ne treba da idu u vojsku, ali moraju da zive izmedju rusevina bombi koje padaju skoro svakodnevno. Iako je moto prezivljavanje tih dana, oni teze da zive sto je moguce normalnije i da prkose ruznoj strani rata - izgleda da svaki od njih ima neku svoju. Jednog dana nekome padne na um da napravi kosarkasko igraliste. Mada je ideja u pocetku okarakterisana kao suluda u takva vremena, uskoro sva omladina pa i stariji svet - roditelji i drugi posmatraci stvari koje se odigravaju na ulicama - kao i suparnicka ulicna banda bivaju privuceni idejom...


Molbe za moje linkove, šaljite na PP.

 

Zabranjeno je kopiranje mojih linkova,reupload i postavljanje na druge forume!


Thanked by 166 Members:

#2
Wolf 13

Wolf 13

    Advanced Member

  • Members
  • PipPipPip
  • 426 posts
  • 33352 thanks
Nebeska udica (2000) DVDrip AC3 5.1 x264 by Wolf
(MKV) HQ
 
E4MQWYS.jpg
 

Please Login or Register to see this Hidden Content

 

General
Unique ID                   : 123218355702173826066080283772293428330 (0x5CB2FDF9E7ACFEF5586A071095CF346A)
Complete name               : Nebeska udica (2000) DVDrip AC3 5.1 x264 by Wolf.mkv
Format                      : Matroska
Format version              : Version 4 / Version 2
File size                   : 1.09 GiB
Duration                    : 1 h 28 min
Overall bit rate            : 1 757 kb/s
Encoded date                : UTC 2018-12-14 20:10:34 / UTC 2018-12-14T16:15:31Z
Writing application         : mkvmerge v29.0.0 ('Like It Or Not') 64-bit
Writing library             : libebml v1.3.6 + libmatroska v1.4.9 / Lavf57.7.2
 
Video
ID                          : 1
Format                      : AVC
Format/Info                 : Advanced Video Codec
Format profile              : [email protected]
Format settings             : CABAC / 8 Ref Frames
Format settings, CABAC      : Yes
Format settings, ReFrames   : 8 frames
Codec ID                    : V_MPEG4/ISO/AVC
Duration                    : 1 h 28 min
Bit rate                    : 1 500 kb/s
Width                       : 718 pixels
Height                      : 426 pixels
Display aspect ratio        : 16:9
Original display aspect rat : 16:9
Frame rate mode             : Constant
Frame rate                  : 25.000 FPS
Color space                 : YUV
Chroma subsampling          : 4:2:0
Bit depth                   : 8 bits
Scan type                   : Progressive
Bits/(Pixel*Frame)          : 0.196
Stream size                 : 932 MiB (83%)
Title                       : Nebeska udica (2000)
Writing library             : x264 core 155 r2901 7d0ff22
Encoding settings           : cabac=1 / ref=8 / deblock=1:-1:-1 / analyse=0x3:0x133 / me=umh / subme=9 / psy=1 / psy_rd=1.00:0.15 / mixed_ref=1 / me_range=16 / chroma_me=1 / trellis=2 / 8x8dct=1 / cqm=0 / deadzone=21,11 / fast_pskip=1 / chroma_qp_offset=-3 / threads=6 / lookahead_threads=1 / sliced_threads=0 / nr=0 / decimate=1 / interlaced=0 / bluray_compat=0 / constrained_intra=0 / bframes=3 / b_pyramid=2 / b_adapt=2 / b_bias=0 / direct=3 / weightb=1 / open_gop=0 / weightp=2 / keyint=250 / keyint_min=25 / scenecut=40 / intra_refresh=0 / rc_lookahead=60 / rc=2pass / mbtree=1 / bitrate=1500 / ratetol=1.0 / qcomp=0.60 / qpmin=0 / qpmax=69 / qpstep=4 / cplxblur=20.0 / qblur=0.5 / vbv_maxrate=300000 / vbv_bufsize=300000 / nal_hrd=none / filler=0 / ip_ratio=1.40 / aq=1:1.00
Language                    : Serbian
Default                     : Yes
Forced                      : No
Color range                 : Limited
Color primaries             : BT.601 PAL
Transfer characteristics    : BT.709
Matrix coefficients         : BT.601
Statistics Tags Issue       : mkvmerge v29.0.0 ('Like It Or Not') 64-bit 2018-12-14 20:10:34 / mkvmerge v29.0.0 ('Like It Or Not') 64-bit 2018-12-14 20:10:34 / UTC 2018-12-14T16:15:31Z
FromStats_BitRate           : 1499507
FromStats_Duration          : 01:28:49.840000000
FromStats_FrameCount        : 133246
FromStats_StreamSize        : 999016815
 
Audio
ID                          : 2
Format                      : AC-3
Format/Info                 : Audio Coding 3
Codec ID                    : A_AC3
Duration                    : 1 h 28 min
Bit rate mode               : Constant
Bit rate                    : 256 kb/s
Channel(s)                  : 6 channels
Channel positions           : Front: L C R, Side: L R, LFE
Sampling rate               : 48.0 kHz
Frame rate                  : 31.250 FPS (1536 SPF)
Bit depth                   : 16 bits
Compression mode            : Lossy
Stream size                 : 163 MiB (15%)
Title                       : Nebeska udica (2000)
Language                    : Serbian
Service kind                : Complete Main
Default                     : Yes
Forced                      : No
Statistics Tags Issue       : mkvmerge v29.0.0 ('Like It Or Not') 64-bit 2018-12-14 20:10:34 / mkvmerge v29.0.0 ('Like It Or Not') 64-bit 2018-12-14 20:10:34 / UTC 2018-12-14T16:15:31Z
FromStats_BitRate           : 256000
FromStats_Duration          : 01:28:49.824000000
FromStats_FrameCount        : 166557
FromStats_StreamSize        : 170554368
 
epYscVA.png
Hidden Content
You'll be able to see the hidden content once you thank this post.
 
xzQcWnt.png
xIWmze9.jpg

Edited by Wolf 13, 14 December 2018 - 23:10.


Thanked by 169 Members:

#3
Zoran_

Zoran_

    Gold Member

  • VIP
  • PipPipPipPipPipPip
  • 5,984 posts
  • 149158 thanks
Nebeska udica (2000)
 
 
EON8DHc.png
 
Su6Ksi6.jpg
 

Please Login or Register to see this Hidden Content

 
 
Film prica o nekim ljudima u Srbiji koji treba da se suoce sa posledicama rata. Vecina njih jos ne treba da idu u vojsku, ali moraju da zive izmedju rusevina bombi koje padaju skoro svakodnevno. Iako je moto prezivljavanje tih dana, oni teze da zive sto je moguce normalnije i da prkose ruznoj strani rata - izgleda da svaki od njih ima neku svoju. Jednog dana nekome padne na um da napravi kosarkasko igraliste. Mada je ideja u pocetku okarakterisana kao suluda u takva vremena, uskoro sva omladina pa i stariji svet - roditelji i drugi posmatraci stvari koje se odigravaju na ulicama - kao i suparnicka ulicna banda bivaju privuceni idejom...
 
dmnxdfwt8g.png
 
lOunO9o.gif
 
iXxFZKq.jpg
 
Oets6ur.gif
 
Nebeska udica (2000) DVDRip.x264.mkv
 
SFYUbuP.jpg
 
Hidden Content
You'll be able to see the hidden content once you thank this post.

Molbe za moje linkove, šaljite na PP.

 

Zabranjeno je kopiranje mojih linkova,reupload i postavljanje na druge forume!


Thanked by 74 Members:
stasha2009 , Nenad71088 , pocoloco013 , Jorgos , LuuuuLe , Boxksi , jadjonbv , srdjan2 , baronrajo , goransokolovic.fr , 303808909 , Loki998 , rikee , worldisasleep , covcici , Ilijaax , Natalija83 , durant212 , satyr83 , Dijana1974 , lestrejndz , snupili , kolobrod , Bontonko , temple , pera.J.detlic , wax1na , preuzimatelj , Myco00 , Stefi_1997 , Night Prowler , tea89 , prihonja , xnoz25 , slavoljubsmeci , barbaraxp , johnrangel25 , marijajevremovic , Stefansrb93 , AccccO , kingofcool , kormi17 , Cocco Bill , Jokso , Kidavela , Miki_Kiki_Riki , matic87 , smajjo , trSTenik , mackosopa , tejicma , Milfir , zoneuznisipucki , Bratija22 , barutan93 , John_Doe , danep , novicanovica , icaleptir , Korto74 , Nebra , granamax , vrdule , cigoyner , Alamo74 , gigo2 , zlaja67 , cikakajtez , Zelenac1 , Gorolomac , fffunkymannn , milosmilosmilos , pleckowian , radonja86



0 user(s) are reading this topic

0 members, 0 guests, 0 anonymous users