Jump to content

Dobrodošli na Balkandownload.org
Tražite domaće knjige, exyu magazine, sinhronizirane crtane filmove, PC i ostale igre, strane i domaće filmove, dokumentarce, stranu i domaću muziku, itd. ? Ne morate tražiti dalje jer sve ćete to naći kod nas, uredno postavljeno i spremno za download. Osim toga registracijom možete sudjelovati u raznim postojećim temama na forumu, otvarati nove teme, sudjelovati u chatu i još mnogo toga. Ako već imaš otvoren račun, logiraj se ovde ,a ako želiš saznati zašto smo najbolji otvori novi račun i uverite se sami :)
Photo

Subspecies (1991)

1991 sad horor rumunjska

  • Please log in to reply
No replies to this topic

#1
LEMONZOO

LEMONZOO

    Advanced Member

  • VIP
  • PipPipPip
  • 739 posts
  • 3055 thanks
  • LocationGavran Mahala
Subspecies (1991) HD Dvdrip by Helljahve
 
rkmooso1t.jpg
 

Please Login or Register to see this Hidden Content

 
The evil vampire villain Radu returns to his hometown Prejnar, after spending years in exile. He steals the precious blood stone which is said to be bleeding from all saints, from his father and kills him. Meanwhile two American schoolgirls team up with a local girl for work on Romanian culture. Radu becomes attracted to them but runs into trouble when his brother Stephan helps the girls.
 

Subspecies (1991)-HD-Dvdrip-by-Helljahve.avi

Format                                   : AVI
Format/Info                              : Audio Video Interleave
File size                                : 1.48 GiB
Duration                                 : 1h 20mn
Overall bit rate                         : 2 622 Kbps
Writing application                      : VirtualDubMod 1.5.4.1 (build 2178/release)
Writing library                          : VirtualDubMod build 2178/release
 
Video
ID                                       : 0
Format                                   : MPEG-4 Visual
Format profile                           : Advanced [email protected]
Format settings, BVOP                    : No
Format settings, QPel                    : No
Format settings, GMC                     : No warppoints
Format settings, Matrix                  : Custom
Codec ID                                 : XVID
Codec ID/Hint                            : XviD
Duration                                 : 1h 20mn
Bit rate                                 : 2 231 Kbps
Width                                    : 720 pixels
Height                                   : 416 pixels
Display aspect ratio                     : 1.731
Frame rate                               : 25.000 fps
Color space                              : YUV
Chroma subsampling                       : 4:2:0
Bit depth                                : 8 bits
Scan type                                : Progressive
Compression mode                         : Lossy
Bits/(Pixel*Frame)                       : 0.298
Stream size                              : 1.26 GiB (85%)
Writing library                          : XviD 1.2.1 (UTC 2008-12-04)
 
Audio
ID                                       : 1
Format                                   : AC-3
Format/Info                              : Audio Coding 3
Mode extension                           : CM (complete main)
Format settings, Endianness              : Big
Codec ID                                 : 2000
Duration                                 : 1h 20mn
Bit rate mode                            : Constant
Bit rate                                 : 384 Kbps
Channel(s)                               : 2 channels
Channel positions                        : Front: L R
Sampling rate                            : 48.0 KHz
Bit depth                                : 16 bits
Compression mode                         : Lossy
Stream size                              : 222 MiB (15%)
Alignment                                : Split accross interleaves
Interleave, duration                     : 96 ms (2.40 video frames)
Interleave, preload duration             : 96 ms
Language                                 : English
 
subspecies1991-hd-dvdgto09.jpg
 
subspecies1991-hd-dvdo5qwo.jpg
 
subspecies1991-hd-dvduir0q.jpg
 
subspecies1991-hd-dvdkkqy4.jpg
 
subspecies1991-hd-dvddwrqw.jpg
 
subspecies1991-hd-dvdy2o7j.jpg
 
subspecies1991-hd-dvdf6r0t.jpg
 
subspecies1991-hd-dvd3xqje.jpg
 
subspecies1991-hd-dvdf9p5a.jpg
 
subspecies1991-hd-dvdryouj.jpg
 
subspecies1991-hd-dvd3lrxu.jpg
 
subspecies1991-hd-dvd8wp9z.jpg
 
Hidden Content
You'll be able to see the hidden content once you thank this post.
 
Credits to original uploader.






Also tagged with one or more of these keywords: 1991, sad, horor, rumunjska

0 user(s) are reading this topic

0 members, 0 guests, 0 anonymous users