Jump to content

Dobrodošli na Balkandownload.org
Tražite domaće knjige, exyu magazine, sinhronizirane crtane filmove, PC i ostale igre, strane i domaće filmove, dokumentarce, stranu i domaću muziku, itd. ? Ne morate tražiti dalje jer sve ćete to naći kod nas, uredno postavljeno i spremno za download. Osim toga registracijom možete sudjelovati u raznim postojećim temama na forumu, otvarati nove teme, sudjelovati u chatu i još mnogo toga. Ako već imaš otvoren račun, logiraj se ovde ,a ako želiš saznati zašto smo najbolji otvori novi račun i uverite se sami :)
Photo

Jungleground (1995)

1995 kanada lov na ljude

  • Please log in to reply
No replies to this topic

#1
LEMONZOO

LEMONZOO

    Advanced Member

  • VIP
  • PipPipPip
  • 737 posts
  • 2906 thanks
  • LocationGavran Mahala
Jungleground (1995)
 
jungleground73u8t.jpg
 

 

Please Login or Register to see this Hidden Content

 

 
Roddy Piper portrays a police Lt. working undercover in the so-called Jungleground. His sting operation goes bad and as a result he is caught. Young Odin, his captor and would be drug lord decide to play a game with Roddy. Roddy is given until morning to make it out of the Jungleground alive. Odin and his men however are hunting Roddy; and Odin also has a little insurance, he's kidnapped Roddy's soon to be fiance.
 

Jungleground 1995.avi

Format                                   : AVI
Format/Info                              : Audio Video Interleave
Format profile                           : OpenDML
Format settings                          : rec
File size                                : 1.03 GiB
Duration                                 : 1h 26mn
Overall bit rate                         : 1 700 Kbps
Writing application                      : AVI-Mux GUI 1.17.7, Aug  8 2006  20:59:17
 
Video
ID                                       : 0
Format                                   : MPEG-4 Visual
Format profile                           : Advanced [email protected]
Format settings, BVOP                    : No
Format settings, QPel                    : No
Format settings, GMC                     : No warppoints
Format settings, Matrix                  : Default (MPEG)
Codec ID                                 : XVID
Codec ID/Hint                            : XviD
Duration                                 : 1h 26mn
Bit rate                                 : 1 505 Kbps
Width                                    : 720 pixels
Height                                   : 544 pixels
Display aspect ratio                     : 4:3
Frame rate                               : 23.976 fps
Color space                              : YUV
Chroma subsampling                       : 4:2:0
Bit depth                                : 8 bits
Scan type                                : Progressive
Compression mode                         : Lossy
Bits/(Pixel*Frame)                       : 0.160
Stream size                              : 933 MiB (88%)
Writing library                          : XviD 1.2.1 (UTC 2008-12-04)
 
Audio
ID                                       : 1
Format                                   : MPEG Audio
Format version                           : Version 1
Format profile                           : Layer 3
Mode                                     : Joint stereo
Mode extension                           : MS Stereo
Codec ID                                 : 55
Codec ID/Hint                            : MP3
Duration                                 : 1h 26mn
Bit rate mode                            : Constant
Bit rate                                 : 192 Kbps
Channel(s)                               : 2 channels
Sampling rate                            : 44.1 KHz
Compression mode                         : Lossy
Stream size                              : 119 MiB (11%)
Alignment                                : Aligned on interleaves
Interleave, duration                     : 507 ms (12.16 video frames)
Interleave, preload duration             : 208 ms
Writing library                          : LAME3.97
 
jungleground1995.avi_0gexb.jpg
 
jungleground1995.avi_8fdgr.jpg
 
jungleground1995.avi_2dda5.jpg
 
jungleground1995.avi_rad0t.jpg
 
jungleground1995.avi_kof9r.jpg
 
jungleground1995.avi_m9c14.jpg
 
jungleground1995.avi_j1eiy.jpg
 
jungleground1995.avi_zhejw.jpg
 
jungleground1995.avi_j8e2o.jpg
 
Link:
Hidden Content
You'll be able to see the hidden content once you thank this post.
 
Credits goes to SeXile @ Warez BB.

Edited by LEMONZOO, 22 October 2014 - 13:18.






Also tagged with one or more of these keywords: 1995, kanada, lov na ljude

0 user(s) are reading this topic

0 members, 0 guests, 0 anonymous users