Jump to content

Dobrodošli na Balkandownload.org
Tražite domaće knjige, exyu magazine, sinhronizirane crtane filmove, PC i ostale igre, strane i domaće filmove, dokumentarce, stranu i domaću muziku, itd. ? Ne morate tražiti dalje jer sve ćete to naći kod nas, uredno postavljeno i spremno za download. Osim toga registracijom možete sudjelovati u raznim postojećim temama na forumu, otvarati nove teme, sudjelovati u chatu i još mnogo toga. Ako već imaš otvoren račun, logiraj se ovde ,a ako želiš saznati zašto smo najbolji otvori novi račun i uverite se sami :)
Photo

Kuduz (1989)


4 replies to this topic

#1
Zoran_

Zoran_

    Gold Member

  • VIP
  • PipPipPipPipPipPip
  • 5,984 posts
  • 149257 thanks

Kuduz (1989)


Kuduz1989.png

imdb6.jpg
 

Please Login or Register to see this Hidden Content

U sumornom ambijentu gradske periferije pocinje prica o lokalnoj zavodnici koja se udaje za doskorašnjeg robijaša Kuduza, covjeka kojeg razapinju strasti. Pocetni nesporazumi i praštanja izmedju supružnika, a zatim potere i svadje, mirenja i molbe, neminovno vode ovu vezu dvoje ljudi elementarnog naboja tragicnom završetku. On ce izvršiti zlocin. Za sve vrijeme ove burne veze odvija se plemenita, nježna i kristalno cista ljubav izmedju poocima Kuduza i njegove petogodišnje pastorke.


Molbe za moje linkove, šaljite na PP.

 

Zabranjeno je kopiranje mojih linkova,reupload i postavljanje na druge forume!


Thanked by 97 Members:

#2
dakle

dakle

    Advanced Member

  • Banovan
  • PipPipPip
  • 340 posts
  • 39865 thanks
  • LocationBALKAN

Kuduz (1989)

 

P7MP716.jpg

 

U sumornom ambijentu gradske periferije počinje priča o lokalnoj zavodnici koja se udaje za doskorašnjeg robijaša Kuduza, čoveka kojeg razapinju strasti. Početni nesporazumi i praštanja između supružnika, a zatim potere i svađe, mirenja i molbe...

Režija: Ademir Kenović
Uloge: Božo Bunjevac ,  Branko Đurić ,  Mustafa Nadarević ,  Slobodan Ćustić ,  Snežana Bogdanović
godina proizvodnje: 1989

 

74vs7yy.jpg

 

Download:

Hidden Content
You'll be able to see the hidden content once you thank this post.


:excl: Za obnovu isteklih/mrtvih linkova, pišite mi u PM. :excl:

:yes:- BALKANDOWNLOAD -Balkan no.1 Forum - :yes:


Thanked by 95 Members:

#3
nikolakralj100

nikolakralj100

    Advanced Member

  • Members
  • PipPipPip
  • 346 posts
  • 20513 thanks

DVDr

 

4lwCqo7.jpg

 

dagegc5.jpg

 

Hidden Content
You'll be able to see the hidden content once you thank this post.


Thanked by 53 Members:
dgema82 , lilke , sloznabraca , b50andi , Bontonko , Manda94 , chefko , sasadin , voje , rafael13 , Mup112 , Arnautovic54 , Loki998 , drago666 , kresomirovic , Zelenac1 , denimiko1 , novicanovica , MilasMario , hcpunkoi , merry , Smajo , jovicai , visnjavisnja , predrak , ekozelj , fffunkymannn , nixonns , danijeladanijel , sundew , chicio , pina , Mutombo55 , sanel11 , admir_b , ZikaKisobranac , danep , ivorgic , Hornet_UE , Sel7 , soldierofmisfortune , zvekance , zorandju , acika94 , sasha70 , borisque , antonio67 , jovica100 , grof65 , iljeva990 , mikula11 , opetopet , caki1980

#4
Zoran_

Zoran_

    Gold Member

  • VIP
  • PipPipPipPipPipPip
  • 5,984 posts
  • 149257 thanks
Kuduz (1989)
 
 
Kuduz1989.png
 
Su6Ksi6.jpg
 

Please Login or Register to see this Hidden Content

 
U sumornom ambijentu gradske periferije pocinje prica o lokalnoj zavodnici koja se udaje za doskorašnjeg robijaša Kuduza, covjeka kojeg razapinju strasti. Pocetni nesporazumi i praštanja izmedju supružnika, a zatim potere i svadje, mirenja i molbe, neminovno vode ovu vezu dvoje ljudi elementarnog naboja tragicnom završetku. On ce izvršiti zlocin. Za sve vrijeme ove burne veze odvija se plemenita, nježna i kristalno cista ljubav izmedju poocima Kuduza i njegove petogodišnje pastorke.
 
e5z3akotd06.png
 
SuGq7mh.gif
 
tbknLnb.jpg
 
Oets6ur.gif
 
Kuduz (1989) DVDRip.x264.mkv
 
SFYUbuP.jpg
 
Hidden Content
You'll be able to see the hidden content once you thank this post.

Molbe za moje linkove, šaljite na PP.

 

Zabranjeno je kopiranje mojih linkova,reupload i postavljanje na druge forume!


Thanked by 40 Members:
scofield123 , razamanaz1550 , goransokolovic.fr , vlast69 , zorandju , b50andi , Bontonko , sloznabraca , gbarac , sasadin , severing , voje , Attila , sale pn , dejan.petrovic , Mup112 , satserb , Arnautovic54 , amirn , kockari , drago666 , MP22 , kresomirovic , cigoyner , Nebojsa1985 , jumanjinz , Jokso , danep , beograd1960' , fffunkymannn , icaleptir , Alamo74 , persifal2 , Filaret , dzogani , akiro , Milfir , Miki_Kiki_Riki , novicanovica , milan39

#5
Wolf 13

Wolf 13

    Advanced Member

  • Members
  • PipPipPip
  • 426 posts
  • 33407 thanks
Kuduz (1989) DVDrip AC3 5.1 x264 by Wolf
(MKV)
 
9OGgXad.jpg
 

Please Login or Register to see this Hidden Content

 

General
Unique ID                   : 199350898345854266432307112081013941639 (0x95F99622030015649530132F88112587)
Complete name               : Kuduz (1989) DVDrip AC3 5.1 x264 by Wolf.mkv
Format                      : Matroska
Format version              : Version 4
File size                   : 1.25 GiB
Duration                    : 1 h 41 min
Overall bit rate            : 1 758 kb/s
Encoded date                : UTC 2018-12-22 16:48:52 / UTC 2018-12-22T13:21:49Z
Writing application         : mkvmerge v29.0.0 ('Like It Or Not') 64-bit
Writing library             : libebml v1.3.6 + libmatroska v1.4.9 / Lavf57.7.2
 
Video
ID                          : 1
Format                      : AVC
Format/Info                 : Advanced Video Codec
Format profile              : [email protected]
Format settings             : CABAC / 8 Ref Frames
Format settings, CABAC      : Yes
Format settings, ReFrames   : 8 frames
Codec ID                    : V_MPEG4/ISO/AVC
Duration                    : 1 h 41 min
Bit rate                    : 1 500 kb/s
Width                       : 702 pixels
Height                      : 572 pixels
Display aspect ratio        : 5:3
Original display aspect rat : 4:3
Frame rate mode             : Constant
Frame rate                  : 25.000 FPS
Color space                 : YUV
Chroma subsampling          : 4:2:0
Bit depth                   : 8 bits
Scan type                   : Progressive
Bits/(Pixel*Frame)          : 0.149
Stream size                 : 1.04 GiB (83%)
Title                       : Kuduz (1989)
Writing library             : x264 core 155 r2901 7d0ff22
Encoding settings           : cabac=1 / ref=8 / deblock=1:-1:-1 / analyse=0x3:0x133 / me=umh / subme=9 / psy=1 / psy_rd=1.00:0.15 / mixed_ref=1 / me_range=16 / chroma_me=1 / trellis=2 / 8x8dct=1 / cqm=0 / deadzone=21,11 / fast_pskip=1 / chroma_qp_offset=-3 / threads=6 / lookahead_threads=1 / sliced_threads=0 / nr=0 / decimate=1 / interlaced=0 / bluray_compat=0 / constrained_intra=0 / bframes=3 / b_pyramid=2 / b_adapt=2 / b_bias=0 / direct=3 / weightb=1 / open_gop=0 / weightp=2 / keyint=250 / keyint_min=25 / scenecut=40 / intra_refresh=0 / rc_lookahead=60 / rc=2pass / mbtree=1 / bitrate=1500 / ratetol=1.0 / qcomp=0.60 / qpmin=0 / qpmax=69 / qpstep=4 / cplxblur=20.0 / qblur=0.5 / vbv_maxrate=300000 / vbv_bufsize=300000 / nal_hrd=none / filler=0 / ip_ratio=1.40 / aq=1:1.00
Language                    : Bosnian
Default                     : Yes
Forced                      : No
Color range                 : Limited
Color primaries             : BT.601 PAL
Transfer characteristics    : BT.709
Matrix coefficients         : BT.601
Statistics Tags Issue       : mkvmerge v29.0.0 ('Like It Or Not') 64-bit 2018-12-22 16:48:52 / mkvmerge v29.0.0 ('Like It Or Not') 64-bit 2018-12-22 16:48:52 / UTC 2018-12-22T13:21:49Z
FromStats_BitRate           : 1499925
FromStats_Duration          : 01:41:52.600000000
FromStats_FrameCount        : 152815
FromStats_StreamSize        : 1146055614
 
Audio
ID                          : 2
Format                      : E-AC-3
Format/Info                 : Enhanced AC-3
Commercial name             : Dolby Digital Plus
Codec ID                    : A_EAC3
Duration                    : 1 h 41 min
Bit rate mode               : Constant
Bit rate                    : 256 kb/s
Channel(s)                  : 6 channels
Channel layout              : L R C LFE Ls Rs
Sampling rate               : 48.0 kHz
Frame rate                  : 31.250 FPS (1536 SPF)
Compression mode            : Lossy
Delay relative to video     : -85 ms
Stream size                 : 187 MiB (15%)
Title                       : Kuduz (1989)
Language                    : Bosnian
Service kind                : Complete Main
Default                     : Yes
Forced                      : No
Statistics Tags Issue       : mkvmerge v29.0.0 ('Like It Or Not') 64-bit 2018-12-22 16:48:52 / mkvmerge v29.0.0 ('Like It Or Not') 64-bit 2018-12-22 16:48:52 / UTC 2018-12-22T13:21:49Z
FromStats_BitRate           : 256000
FromStats_Duration          : 01:41:52.640000000
FromStats_FrameCount        : 191020
FromStats_StreamSize        : 195604480
 
epYscVA.png
Hidden Content
You'll be able to see the hidden content once you thank this post.
 
yyXSTir.png
nAhFpvq.jpg


Thanked by 36 Members:
zvrcko , angie_mcfc , 8888 , lilke , xnoz25 , b50andi , Bontonko , Manda94 , chefko , Aleksandar_veliki , sasadin , Homme , voje , Tom_Bishop , Attila , centrala88 , indukcia , BobbyPeruAd , rafael13 , fritz200300 , mihro , Mup112 , vujo55 , Arnautovic54 , uzickarepublika , dragan13 , visnjavisnja , drago666 , sanj89 , danep , Jokso , Smajo , icaleptir , Filaret , Milan1959 , hectrix



0 user(s) are reading this topic

0 members, 0 guests, 0 anonymous users