Jump to content

Dobrodošli na Balkandownload.org
Tražite domaće knjige, exyu magazine, sinhronizirane crtane filmove, PC i ostale igre, strane i domaće filmove, dokumentarce, stranu i domaću muziku, itd. ? Ne morate tražiti dalje jer sve ćete to naći kod nas, uredno postavljeno i spremno za download. Osim toga registracijom možete sudjelovati u raznim postojećim temama na forumu, otvarati nove teme, sudjelovati u chatu i još mnogo toga. Ako već imaš otvoren račun, logiraj se ovde ,a ako želiš saznati zašto smo najbolji otvori novi račun i uverite se sami :)
Photo

I corpi presentano tracce di violenza carnale (1973) AKA Torso

1973 giallo

  • Please log in to reply
No replies to this topic

#1
LEMONZOO

LEMONZOO

    Advanced Member

  • VIP
  • PipPipPip
  • 739 posts
  • 3031 thanks
  • LocationGavran Mahala
I corpi presentano tracce di violenza carnale (1973) AKA Torso
 
corpi_presentano_trac0qudv.jpg
 

Please Login or Register to see this Hidden Content

 
Someone is strangling coeds in Perugia. The only clue is that the killer owns a red and black scarf, and police are stumped. American exchange student Jane and her friends decide to take a break from classes by going up to Danielle's uncle's villa in the country. Unfortunately the killer decides to follow, and the women begin suffering a rapid attrition problem.
 

General

Complete name : Torso - I Corpi presentano tracce di violenza carnale - 1973.avi
Format                                   : AVI
Format/Info                              : Audio Video Interleave
File size                                : 1.13 GiB
Duration                                 : 1h 29mn
Overall bit rate                         : 1 807 Kbps
Writing application                      : VirtualDubMod 1.5.10.2 (build 2540/release)
Writing library                          : VirtualDub build 32661/release
 
Video
ID                                       : 0
Format                                   : MPEG-4 Visual
Format profile                           : Advanced [email protected]
Format settings, BVOP                    : 2
Format settings, QPel                    : Yes
Format settings, GMC                     : No warppoints
Format settings, Matrix                  : Default (MPEG)
Muxing mode                              : Packed bitstream
Codec ID                                 : XVID
Codec ID/Hint                            : XviD
Duration                                 : 1h 29mn
Bit rate                                 : 1 605 Kbps
Width                                    : 716 pixels
Height                                   : 460 pixels
Display aspect ratio                     : 1.698
Frame rate                               : 25.000 fps
Color space                              : YUV
Chroma subsampling                       : 4:2:0
Bit depth                                : 8 bits
Scan type                                : Progressive
Compression mode                         : Lossy
Bits/(Pixel*Frame)                       : 0.195
Stream size                              : 1.00 GiB (89%)
Writing library                          : XviD 1.2.1 (UTC 2008-12-04)
 
Audio
ID                                       : 1
Format                                   : AC-3
Format/Info                              : Audio Coding 3
Mode extension                           : CM (complete main)
Format settings, Endianness              : Big
Codec ID                                 : 2000
Duration                                 : 1h 29mn
Bit rate mode                            : Constant
Bit rate                                 : 192 Kbps
Channel count                            : 2 channels
Channel positions                        : Front: L R
Sampling rate                            : 48.0 KHz
Bit depth                                : 16 bits
Compression mode                         : Lossy
Stream size                              : 123 MiB (11%)
Alignment                                : Split accross interleaves
Interleave, duration                     : 40 ms (1.00 video frame)
Interleave, preload duration             : 500 ms
 
 
torso-icorpipresentanxesc7.jpg
 
torso-icorpipresentanghsru.jpg
 
torso-icorpipresentanqesvg.jpg
 
torso-icorpipresentantms1a.jpg
 
torso-icorpipresentanjps8s.jpg
 
torso-icorpipresentan6xsjn.jpg
 
torso-icorpipresentan8as5z.jpg
 
torso-icorpipresentanuds8z.jpg
 
torso-icorpipresentanezskb.jpg
 
torso-icorpipresentanzssrx.jpg
 
torso-icorpipresentanf7sji.jpg
 
torso-icorpipresentangssva.jpg
 
torso-icorpipresentan13sou.jpg
 
torso-icorpipresentandsspk.jpg
 
Link:
Hidden Content
You'll be able to see the hidden content once you thank this post.
 
Credits to original uploader.






Also tagged with one or more of these keywords: 1973, giallo

0 user(s) are reading this topic

0 members, 0 guests, 0 anonymous users