Jump to content

Dobrodošli na Balkandownload.org
Tražite domaće knjige, exyu magazine, sinhronizirane crtane filmove, PC i ostale igre, strane i domaće filmove, dokumentarce, stranu i domaću muziku, itd. ? Ne morate tražiti dalje jer sve ćete to naći kod nas, uredno postavljeno i spremno za download. Osim toga registracijom možete sudjelovati u raznim postojećim temama na forumu, otvarati nove teme, sudjelovati u chatu i još mnogo toga. Ako već imaš otvoren račun, logiraj se ovde ,a ako želiš saznati zašto smo najbolji otvori novi račun i uverite se sami :)
Photo

Vesnicko má stredisková (1985) AKA My Sweet Little Village

1985

  • Please log in to reply
4 replies to this topic

#1
LEMONZOO

LEMONZOO

    Advanced Member

  • VIP
  • PipPipPip
  • 739 posts
  • 3025 thanks
  • LocationGavran Mahala
Vesnicko má stredisková (1985) AKA My Sweet Little Village
 
vesnicko_ma_strediskoa8rim.jpg
 

Please Login or Register to see this Hidden Content

 
Comedy about the people who inhabit a small town. For years the overbearing Pavek has endured Otik, the "town idiot," sharing his meals and the front seat of their dump truck. But Otik is such a sweet-natured fool that Pavek, exasperated as he becomes, always relents on his threats to find another partner. This Laurel and Hardy-like pair are at the heart of a comedy which finds humor in an abundance of everyday situations. The town doctor regularly wrecks his car because he's admiring the scenery, a romantic teenager develops a hopeless crush on his sister's schoolteacher, and an adulterous housewife and her boyfriend are just one step ahead of her suspicious, hot-headed husband.
 

General

Complete name : Vesničko má středisková HQ.avi
Format                                   : AVI
Format/Info                              : Audio Video Interleave
Format profile                           : OpenDML
File size                                : 1.81 GiB
Duration                                 : 1h 38mn
Overall bit rate                         : 2 640 Kbps
Writing application                      : Lavf51.12.1
 
Video
ID                                       : 0
Format                                   : MPEG-4 Visual
Format profile                           : [email protected]
Format settings, BVOP                    : No
Format settings, QPel                    : No
Format settings, GMC                     : No warppoints
Format settings, Matrix                  : Default (H.263)
Codec ID                                 : DX50
Codec ID/Hint                            : DivX 5
Duration                                 : 1h 38mn
Bit rate                                 : 2 499 Kbps
Width                                    : 720 pixels
Height                                   : 576 pixels
Display aspect ratio                     : 1.372
Frame rate                               : 25.000 fps
Standard                                 : PAL
Color space                              : YUV
Chroma subsampling                       : 4:2:0
Bit depth                                : 8 bits
Scan type                                : Progressive
Compression mode                         : Lossy
Bits/(Pixel*Frame)                       : 0.241
Stream size                              : 1.71 GiB (95%)
Writing library                          : Lavc51.40.4
 
Audio
ID                                       : 1
Format                                   : MPEG Audio
Format version                           : Version 1
Format profile                           : Layer 3
Mode                                     : Joint stereo
Mode extension                           : MS Stereo
Codec ID                                 : 55
Codec ID/Hint                            : MP3
Duration                                 : 1h 38mn
Bit rate mode                            : Constant
Bit rate                                 : 128 Kbps
Channel count                            : 2 channels
Sampling rate                            : 44.1 KHz
Compression mode                         : Lossy
Stream size                              : 89.9 MiB (5%)
Alignment                                : Aligned on interleaves
Interleave, duration                     : 26 ms (0.65 video frame)
Interleave, preload duration             : 26 ms
 
vesnikomstediskovhq.a3cs01.jpg
 
vesnikomstediskovhq.aijssb.jpg
 
vesnikomstediskovhq.amfs73.jpg
 
vesnikomstediskovhq.am7s71.jpg
 
vesnikomstediskovhq.a2dsq6.jpg
 
vesnikomstediskovhq.amosgv.jpg
 
vesnikomstediskovhq.aigsq7.jpg
 
vesnikomstediskovhq.a7asu8.jpg
 
vesnikomstediskovhq.az7s2c.jpg
 
vesnikomstediskovhq.a29sl5.jpg
 
Link:

Please Login or Register to see this Hidden Content

 
Credits to original uploader.
 
Titl:

Please Login or Register to see this Hidden Content


Edited by LEMONZOO, 01 January 2015 - 20:21.


#2
angela32

angela32

    Newbie

  • Members
  • Pip
  • 3 posts
  • 0 thanks

hvala, to film ima engl titlovi ?



#3
LEMONZOO

LEMONZOO

    Advanced Member

  • VIP
  • PipPipPip
  • 739 posts
  • 3025 thanks
  • LocationGavran Mahala

probaj na podnapisi.net. imam u planu ripati hrt/ove titlove, ali ne skoro.



#4
kosingas

kosingas

    Advanced Member

  • Members
  • PipPipPip
  • 140 posts
  • 144 thanks
  • LocationAtlantida

Hu, gledao sam ovo davno i davno na televiziji. Fantastični su. Ludilo!!!


Никад не спавај с неким луђим од себе!


#5
LEMONZOO

LEMONZOO

    Advanced Member

  • VIP
  • PipPipPip
  • 739 posts
  • 3025 thanks
  • LocationGavran Mahala

Eto linka do titla u 1. postu.







Also tagged with one or more of these keywords: 1985

0 user(s) are reading this topic

0 members, 0 guests, 0 anonymous users