Jump to content

Dobrodošli na Balkandownload.org
Tražite domaće knjige, exyu magazine, sinhronizirane crtane filmove, PC i ostale igre, strane i domaće filmove, dokumentarce, stranu i domaću muziku, itd. ? Ne morate tražiti dalje jer sve ćete to naći kod nas, uredno postavljeno i spremno za download. Osim toga registracijom možete sudjelovati u raznim postojećim temama na forumu, otvarati nove teme, sudjelovati u chatu i još mnogo toga. Ako već imaš otvoren račun, logiraj se ovde ,a ako želiš saznati zašto smo najbolji otvori novi račun i uverite se sami :)

The Oh in Ohio (2006)

2006 sad

  • Please log in to reply
No replies to this topic



    Advanced Member

  • VIP
  • PipPipPip
  • 717 posts
  • 2340 thanks
  • LocationGavran Mahala

Please Login or Register to see this Hidden Content

In Ohio, Priscilla Chase is the VP of a company that works bringing new business to Cleveland. She has been married for more than ten years with Jack Chase, the biology teacher from the local public school. Priscilla is successful in her career but is frigid and has never reached an orgasm, hurting her frustrated husband. When Priscilla decides to buy a vibrator, Jack is seduced by his teenage student Kristen Taylor and recovers his self-esteem, working out, losing weight and dressing adequately. Priscilla has new sexual experiences and becomes closer to Wayne the Pool Guy, the constructor of swimming pools in her neighborhood since she was a child. The new relationships upgrade the personal and professional lives of Priscilla and Jack. 


Complete name : The.OH.in.Ohio.LIMITED.DVDRip.XviD-SAPHiRE.avi
Format : AVI
Format/Info : Audio Video Interleave
File size : 700 MiB
Duration : 1h 28mn
Overall bit rate mode : Variable
Overall bit rate : 1 106 Kbps
Writing application : VirtualDubMod (build 2540/release)
Writing library : VirtualDubMod build 2540/release
ID : 0
Format : MPEG-4 Visual
Format profile : Advanced [email protected]
Format settings, BVOP : 1
Format settings, QPel : No
Format settings, GMC : No warppoints
Format settings, Matrix : Default (MPEG)
Muxing mode : Packed bitstream
Codec ID : XVID
Codec ID/Hint : XviD
Duration : 1h 28mn
Bit rate : 930 Kbps
Width : 640 pixels
Height : 352 pixels
Display aspect ratio : 16:9
Frame rate : 23.976 fps
Color space : YUV
Chroma subsampling : 4:2:0
Bit depth : 8 bits
Scan type : Progressive
Compression mode : Lossy
Bits/(Pixel*Frame) : 0.172
Stream size : 589 MiB (84%)
Writing library : XviD 1.1.2 (UTC 2006-11-01)
ID : 1
Format : MPEG Audio
Format version : Version 1
Format profile : Layer 3
Mode : Joint stereo
Mode extension : MS Stereo
Codec ID : 55
Codec ID/Hint : MP3
Duration : 1h 28mn
Bit rate mode : Variable
Bit rate : 163 Kbps
Minimum bit rate : 128 Kbps
Channel(s) : 2 channels
Sampling rate : 48.0 KHz
Compression mode : Lossy
Stream size : 103 MiB (15%)
Alignment : Aligned on interleaves
Interleave, duration : 24 ms (0.58 video frame)
Interleave, preload duration : 112 ms
Writing library : LAME3.97 
Encoding settings : -m j -V 2 -q 3 -lowpass 18.6 --vbr-new -b 128

Please Login or Register to see this Hidden Content

Also tagged with one or more of these keywords: 2006, sad

0 user(s) are reading this topic

0 members, 0 guests, 0 anonymous users