Jump to content

Dobrodošli na Balkandownload.org
Tražite domaće knjige, exyu magazine, sinhronizirane crtane filmove, PC i ostale igre, strane i domaće filmove, dokumentarce, stranu i domaću muziku, itd. ? Ne morate tražiti dalje jer sve ćete to naći kod nas, uredno postavljeno i spremno za download. Osim toga registracijom možete sudjelovati u raznim postojećim temama na forumu, otvarati nove teme, sudjelovati u chatu i još mnogo toga. Ako već imaš otvoren račun, logiraj se ovde ,a ako želiš saznati zašto smo najbolji otvori novi račun i uverite se sami :)

Winnetou und Shatterhand im Tal der Toten (1968) aka Winnetou: The Valley of Death

1968 vestern njemacka jugoslavija karl may

  • Please log in to reply
No replies to this topic



    Advanced Member

  • VIP
  • PipPipPip
  • 717 posts
  • 2303 thanks
  • LocationGavran Mahala


Please Login or Register to see this Hidden Content

Mabel Kingsley arrives at a western town to clear her missing father of the charge that he stole a shipment of government gold. A frontiersman known as "Shatterhand" agrees to guide her in a search for the gold and for major Kingsley. They are joined by an army lieutenant, an amateur botanist, and an Apache chief named Winnetou. Despite troubles caused by pursuing bandits and by Winnetou's enemy, a Sioux chief, Mabel's party eventually reaches the "Valley of Death" which holds the answers to the mystery of the missing gold. 


Complete name                            : Winnetou.und.Shatterhand.im.Tal.der.Toten.1968.DVDRip.XviD-NaTiVe.avi
Format                                   : AVI
Format/Info                              : Audio Video Interleave
File size                                : 699 MiB
Duration                                 : 1h 25mn
Overall bit rate mode                    : Variable
Overall bit rate                         : 1 142 Kbps
Writing application                      : VirtualDubMod (build 2178/release)
Writing library                          : VirtualDubMod build 2178/release
ID                                       : 0
Format                                   : MPEG-4 Visual
Format profile                           : Advanced [email protected]
Format settings, BVOP                    : 1
Format settings, QPel                    : No
Format settings, GMC                     : No warppoints
Format settings, Matrix                  : Custom
Codec ID                                 : XVID
Codec ID/Hint                            : XviD
Duration                                 : 1h 25mn
Bit rate                                 : 1 026 Kbps
Width                                    : 640 pixels
Height                                   : 288 pixels
Display aspect ratio                     : 2.222
Frame rate                               : 25.000 fps
Color space                              : YUV
Chroma subsampling                       : 4:2:0
Bit depth                                : 8 bits
Scan type                                : Progressive
Compression mode                         : Lossy
Bits/(Pixel*Frame)                       : 0.223
Stream size                              : 628 MiB (90%)
Writing library                          : XviD 1.2.0.dev47 (UTC 2006-11-01)
ID                                       : 1
Format                                   : MPEG Audio
Format version                           : Version 1
Format profile                           : Layer 3
Mode                                     : Joint stereo
Mode extension                           : MS Stereo
Codec ID                                 : 55
Codec ID/Hint                            : MP3
Duration                                 : 1h 25mn
Bit rate mode                            : Variable
Bit rate                                 : 103 Kbps
Nominal bit rate                         : 128 Kbps
Channel count                            : 2 channels
Sampling rate                            : 48.0 KHz
Compression mode                         : Lossy
Stream size                              : 62.9 MiB (9%)
Alignment                                : Aligned on interleaves
Interleave, duration                     : 24 ms (0.60 video frame)
Interleave, preload duration             : 179 ms
Writing library                          : LAME3.97 
Encoding settings                        : -m j -V 4 -q 2 -lowpass 17 --abr 128
Language                                 : Deutsch
Hidden Content
You'll be able to see the hidden content once you thank this post.
Credits to original uploader.

Edited by LEMONZOO, 19 November 2014 - 14:34.

Thanked by 1 Member:

Also tagged with one or more of these keywords: 1968, vestern, njemacka, jugoslavija, karl may

0 user(s) are reading this topic

0 members, 0 guests, 0 anonymous users