Jump to content

Dobrodošli na Balkandownload.org
Tražite domaće knjige, exyu magazine, sinhronizirane crtane filmove, PC i ostale igre, strane i domaće filmove, dokumentarce, stranu i domaću muziku, itd. ? Ne morate tražiti dalje jer sve ćete to naći kod nas, uredno postavljeno i spremno za download. Osim toga registracijom možete sudjelovati u raznim postojećim temama na forumu, otvarati nove teme, sudjelovati u chatu i još mnogo toga. Ako već imaš otvoren račun, logiraj se ovde ,a ako želiš saznati zašto smo najbolji otvori novi račun i uverite se sami :)
Photo

The Lost Skeleton Returns Again (2009)

2009

  • Please log in to reply
No replies to this topic

#1
LEMONZOO

LEMONZOO

    Advanced Member

  • VIP
  • PipPipPip
  • 739 posts
  • 3105 thanks
  • LocationGavran Mahala




The.Lost.Skeleton.Returns.Again.2009.DVDRip.x264

lsranewpostersmall2fecbfcs.jpg

Please Login or Register to see this Hidden Content



Jerranium 90, a "little rock" that made all the papers, is buried deep within the Amazon. And everybody wants it, including crooked importer Handscomb Draile, slimy Gondreau Slykes, cheap crook Carl Traeger and evil scientist Dr. Ellamy Royne.

General
Unique ID                   : 193933014859670220564137533358002982189 (0x91E623DA78956E73B53FD34FB458CD2D)
Complete name               : The.Lost.Skeleton.Returns.Again.2009.DVDRip.x264.mkv
Format                      : Matroska
Format version              : Version 2
File size                   : 1.29 GiB
Duration                    : 1h 32mn
Overall bit rate mode       : Variable
Overall bit rate            : 1 996 Kbps
Encoded date                : UTC 2011-07-31 21:14:45
Writing application         : mkvmerge v4.9.1 ('Ich will') built on Jul 11 2011 23:53:15
Writing library             : libebml v1.2.1 + libmatroska v1.1.1

Video
ID                          : 1
Format                      : AVC
Format/Info                 : Advanced Video Codec
Format profile              : [email protected]
Format settings, CABAC      : Yes
Format settings, ReFrames   : 5 frames
Codec ID                    : V_MPEG4/ISO/AVC
Bit rate                    : 1 684 Kbps
Width                       : 720 pixels
Height                      : 362 pixels
Display aspect ratio        : 2.35:1
Frame rate mode             : Variable
Color space                 : YUV
Chroma subsampling          : 4:2:0
Bit depth                   : 8 bits
Scan type                   : Progressive
Title                       : 720x362 - DAR: 853x362
Writing library             : x264 core 112
Encoding settings           : cabac=1 / ref=6 / deblock=1:-2:-2 / analyse=0x3:0x133 / me=umh / subme=9 / psy=1 / psy_rd=1.00:0.00 / mixed_ref=1 / me_range=24 / chroma_me=1 / trellis=2 / 8x8dct=1 / cqm=0 / deadzone=21,11 / fast_pskip=0 / chroma_qp_offset=-2 / threads=12 / sliced_threads=0 / nr=0 / decimate=1 / interlaced=0 / constrained_intra=0 / bframes=6 / b_pyramid=1 / b_adapt=2 / b_bias=0 / direct=3 / weightb=1 / open_gop=0 / weightp=2 / keyint=240 / keyint_min=23 / scenecut=40 / intra_refresh=0 / rc_lookahead=50 / rc=crf / mbtree=1 / crf=17.5 / qcomp=0.60 / qpmin=3 / qpmax=51 / qpstep=4 / ip_ratio=1.40 / aq=1:1.20
Language                    : English
Default                     : Yes
Forced                      : No
Color primaries             : BT.601 NTSC
Transfer characteristics    : BT.709
Matrix coefficients         : BT.601
Color range                 : Limited

Audio #1
ID                          : 2
Format                      : AC-3
Format/Info                 : Audio Coding 3
Mode extension              : CM (complete main)
Format settings, Endianness : Big
Codec ID                    : A_AC3
Duration                    : 1h 32mn
Bit rate mode               : Constant
Bit rate                    : 192 Kbps
Channel(s)                  : 2 channels
Channel positions           : Front: L R
Sampling rate               : 48.0 KHz
Bit depth                   : 16 bits
Compression mode            : Lossy
Stream size                 : 127 MiB (10%)
Title                       : English AC3 @ 192 Kbps
Language                    : English
Default                     : Yes
Forced                      : No

Audio #2
ID                          : 3
Format                      : Vorbis
Format settings, Floor      : 1
Codec ID                    : A_VORBIS
Duration                    : 1h 32mn
Bit rate mode               : Variable
Bit rate                    : 80.0 Kbps
Channel(s)                  : 2 channels
Sampling rate               : 48.0 KHz
Compression mode            : Lossy
Stream size                 : 52.8 MiB (4%)
Title                       : Commentary - Vorbis @ 80 Kbps
Writing library             : aoTuV Beta 5 (UTC 2006-10-24)
Language                    : English
Default                     : No
Forced                      : No
Writing application         : HandBrake

Menu
00:00:00.000                : en:Opening
00:11:32.224                : en:The Man in the Corner
00:28:22.734                : en:The Skull Attacks
00:43:17.928                : en:One Last Look Around
00:59:17.253                : en:Secrets of the Double Negative
01:15:02.748                : en:The Cantaloupe Dance
01:29:23.141                : en:End Credits



the.lost.skeleton.ret9fcz6.jpg

the.lost.skeleton.ret0zfil.jpg

the.lost.skeleton.retpwexq.jpg

the.lost.skeleton.ret5bfjd.jpg

the.lost.skeleton.retmfiz1.jpg

the.lost.skeleton.ret0ifha.jpg

the.lost.skeleton.ret2vfcv.jpg

the.lost.skeleton.retzjie5.jpg

Hidden Content
You'll be able to see the hidden content once you thank this post.






Also tagged with one or more of these keywords: 2009

0 user(s) are reading this topic

0 members, 0 guests, 0 anonymous users