Jump to content

Dobrodošli na Balkandownload.org
Tražite domaće knjige, exyu magazine, sinhronizirane crtane filmove, PC i ostale igre, strane i domaće filmove, dokumentarce, stranu i domaću muziku, itd. ? Ne morate tražiti dalje jer sve ćete to naći kod nas, uredno postavljeno i spremno za download. Osim toga registracijom možete sudjelovati u raznim postojećim temama na forumu, otvarati nove teme, sudjelovati u chatu i još mnogo toga. Ako već imaš otvoren račun, logiraj se ovde ,a ako želiš saznati zašto smo najbolji otvori novi račun i uverite se sami :)
Photo

Marines (2003)

2003

  • Please log in to reply
1 reply to this topic

#1
LEMONZOO

LEMONZOO

    Advanced Member

  • VIP
  • PipPipPip
  • 739 posts
  • 3063 thanks
  • LocationGavran Mahala

Marines (2003) DVDR
marinesvce7d.jpg

Please Login or Register to see this Hidden Content



The cold war is over. East and West secretly fighting together against illegal heavily armed terrorists, criminals and resistance fighters. During these missions, four soldiers abducted and looks like a major international crisis to occur. The highest military bosses in America and Russia are in a panic. The extinguisher must be a known solution. But ... Marines can not simply put away and leave decisions without official support to do everything to free their comrades. Additional help comes from unexpected places, but whether this will be enough ...

Source............: Retail
Format...........: DVD5
Video.............: PAL
Audio.............: English DD5.1
Genre.............: Action / War
Subs..............: Dutch
Menu..............: Yes
Year......: 2003
Cover & label.....: Yes
Audio.............: English
Duration.........: 90 minutes



Video: MPEG2 Video 720x576 (16:9) 25fps
Audio: Dolby AC3 48000Hz 6ch 448kbps
Audio: Dolby AC3 48000Hz stereo 224kbps
Subtitle: VobSub
Subtitle: UTF-8



vts_07_1.vob_00002051cxdh9.jpg

vts_07_1.vob_00034931u2ehl.jpg

vts_07_1.vob_001123699rcxe.jpg

vts_07_2.vob_0002036996f7g.jpg

vts_07_2.vob_00125754jmevs.jpg

vts_07_3.vob_00043898e5cij.jpg

vts_07_4.vob_000401081td09.jpg

Hidden Content
You'll be able to see the hidden content once you thank this post.


#2
LEMONZOO

LEMONZOO

    Advanced Member

  • VIP
  • PipPipPip
  • 739 posts
  • 3063 thanks
  • LocationGavran Mahala

Marines.2003.English.DVDRip.XViD-LEMONZOO

marinesvce7d.jpg

Please Login or Register to see this Hidden Content



The cold war is over. East and West secretly fighting together against illegal heavily armed terrorists, criminals and resistance fighters. During these missions, four soldiers abducted and looks like a major international crisis to occur. The highest military bosses in America and Russia are in a panic. The extinguisher must be a known solution. But ... Marines can not simply put away and leave decisions without official support to do everything to free their comrades. Additional help comes from unexpected places, but whether this will be enough ...

General
Complete name               : Marines.2003.English.DVDRip.XViD-LEMONZOO.avi
Format                      : AVI
Format/Info                 : Audio Video Interleave
File size                   : 950 MiB
Duration                    : 1h 29mn
Overall bit rate            : 1 479 Kbps
Writing application         : VirtualDubMod 1.5.4.1 (build 2178/release)
Writing library             : VirtualDubMod build 2178/release

Video
ID                          : 0
Format                      : MPEG-4 Visual
Format profile              : Advanced [email protected]
Format settings, BVOP       : 1
Format settings, QPel       : No
Format settings, GMC        : No warppoints
Format settings, Matrix     : Custom
Codec ID                    : XVID
Codec ID/Hint               : XviD
Duration                    : 1h 29mn
Bit rate                    : 1 248 Kbps
Width                       : 720 pixels
Height                      : 400 pixels
Display aspect ratio        : 16:9
Frame rate                  : 25.000 fps
Color space                 : YUV
Chroma subsampling          : 4:2:0
Bit depth                   : 8 bits
Scan type                   : Progressive
Compression mode            : Lossy
Bits/(Pixel*Frame)          : 0.173
Stream size                 : 801 MiB (84%)
Writing library             : XviD 73

Audio
ID                          : 1
Format                      : MPEG Audio
Format version              : Version 1
Format profile              : Layer 3
Mode                        : Joint stereo
Mode extension              : MS Stereo
Codec ID                    : 55
Codec ID/Hint               : MP3
Duration                    : 1h 29mn
Bit rate mode               : Constant
Bit rate                    : 224 Kbps
Channel(s)                  : 2 channels
Sampling rate               : 48.0 KHz
Compression mode            : Lossy
Stream size                 : 144 MiB (15%)
Alignment                   : Aligned on interleaves
Interleave, duration        : 80 ms (2.00 video frames)
Interleave, preload duratio : 504 ms
Writing library             : LAME3.98r
Encoding settings           : -m j -V 4 -q 2 -lowpass 19.4 -b 224




marines.2003.english.6xd0y.jpg

marines.2003.english.kkf6z.jpg

marines.2003.english.ejdku.jpg

marines.2003.english.bmdow.jpg

marines.2003.english.m6fpr.jpg

marines.2003.english.8aeh7.jpg

marines.2003.english.wbfgk.jpg

marines.2003.english.q5iun.jpg

marines.2003.english.7pi0h.jpg

marines.2003.english.h9fc4.jpg

Link:
Hidden Content
You'll be able to see the hidden content once you thank this post.






Also tagged with one or more of these keywords: 2003

0 user(s) are reading this topic

0 members, 0 guests, 0 anonymous users