Jump to content

Dobrodošli na Balkandownload.org
Tražite domaće knjige, exyu magazine, sinhronizirane crtane filmove, PC i ostale igre, strane i domaće filmove, dokumentarce, stranu i domaću muziku, itd. ? Ne morate tražiti dalje jer sve ćete to naći kod nas, uredno postavljeno i spremno za download. Osim toga registracijom možete sudjelovati u raznim postojećim temama na forumu, otvarati nove teme, sudjelovati u chatu i još mnogo toga. Ako već imaš otvoren račun, logiraj se ovde ,a ako želiš saznati zašto smo najbolji otvori novi račun i uverite se sami :)

Turneja (2008)


2 replies to this topic

#1
Guest_**offline**_*

Guest_**offline**_*
  • Guests
  • thanks

Turneja (2008)


flVCw0L.jpg


Rezija: Goran Markovic
Scenario: Goran Markovic
Uloge: Tihomir Stanic, Jelena Djokic, Dragan Nikolic, Mira Furlan, Josif Tatic, Gordan Kicic, Slavko Stimac, Vojislav Brajovic, Sergej Trifunovic, Emir Hadzihafizbegovic

Radnja filma odvija se u 1993. godini oko grupe beogradskih glumaca vođenih potrebom za brzom zaradom. Nesvesni u šta se upuštaju, dolaze u ratom zahvaćena područja Srpske Krajine i lutaju od ratišta do ratišta. Njihova naivnost dovodi ih u centar stravičnih događaja, ali istovremeno ih i spasava iz neverovatnih i po život opasnih situacija.

Svetska premijera bila je na Filmskom festivalu u Montrealu, na kome je film osvojio dve vredne nagrade. Zvanični žiri festivala dodelio je reditelju Goranu Markoviću nagradu za najbolju režiju, a film je dobio i priznanje Saveza internacionalnih filmskih kritičara – nagradu FIPRESCI za najbolji film. „Turneja“ je, inače, i srpski kandidat za 81. nagradu Oskar u kategoriji igranih filmova izvan engleskog govornog područja.

Film je sniman krajem 2007. godine u Šamcu, Derventi, Prijedoru i Kozarskoj Dubici, a realizovale su ga produkcijske kuće iz Beograda, Banjaluke i Zagreba.

 

Please Login or Register to see this Hidden Content



Thanked by 145 Members:

#2
Biotloneta

Biotloneta

    Bronze Member

  • Moderator
  • PipPipPipPip
  • 1,412 posts
  • 66542 thanks
  • LocationRobija

                          Turneja (2008)

              2MSAO8R.jpg

 

Hidden Content
You'll be able to see the hidden content once you thank this post.


  tumblr_o89ik1YZEl1ssbvp5o1_500.gif

 

Za repload mrtvih linkova (domaćih filmova) ili želje za postavljanjem nekog filma kog ne možete da pronađete, obratite mi se putem privatne poruke.


Thanked by 122 Members:

#3
Wolf 13

Wolf 13

    Advanced Member

  • Members
  • PipPipPip
  • 426 posts
  • 33719 thanks
Turneja (2008) DVDrip E-AC3 x264 by Wolf
(MKV)
 
AQYRHSz.jpg
 

Please Login or Register to see this Hidden Content

 

General
Unique ID                   : 223137458830435332054208995391955900511 (0xA7DEB61C2FE57E02B3CB5056EAD1985F)
Complete name               : Turneja (2008) DVDrip E-AC3 x264 by Wolf.mkv
Format                      : Matroska
Format version              : Version 4 / Version 2
File size                   : 1.26 GiB
Duration                    : 1 h 42 min
Overall bit rate            : 1 757 kb/s
Encoded date                : UTC 2018-08-10 09:16:57 / UTC 2018-08-10T06:56:58Z
Writing application         : mkvmerge v25.0.0 ('Prog Noir') 64-bit
Writing library             : libebml v1.3.6 + libmatroska v1.4.9 / Lavf57.7.2
 
Video
ID                          : 1
Format                      : AVC
Format/Info                 : Advanced Video Codec
Format profile              : High [email protected]
Format settings             : CABAC / 4 Ref Frames
Format settings, CABAC      : Yes
Format settings, ReFrames   : 4 frames
Codec ID                    : V_MPEG4/ISO/AVC
Duration                    : 1 h 42 min
Bit rate                    : 1 500 kb/s
Width                       : 716 pixels
Height                      : 554 pixels
Display aspect ratio        : 1.85:1
Frame rate mode             : Constant
Frame rate                  : 25.000 FPS
Color space                 : YUV
Chroma subsampling          : 4:2:0
Bit depth                   : 10 bits
Scan type                   : Progressive
Bits/(Pixel*Frame)          : 0.151
Stream size                 : 1.05 GiB (83%)
Title                       : Turneja (2008)
Writing library             : x264 core 155 r2901 7d0ff22
Encoding settings           : cabac=1 / ref=3 / deblock=1:0:0 / analyse=0x3:0x113 / me=hex / subme=7 / psy=1 / psy_rd=1.00:0.00 / mixed_ref=1 / me_range=16 / chroma_me=1 / trellis=1 / 8x8dct=1 / cqm=0 / deadzone=21,11 / fast_pskip=1 / chroma_qp_offset=-2 / threads=3 / lookahead_threads=1 / sliced_threads=0 / nr=0 / decimate=1 / interlaced=0 / bluray_compat=0 / constrained_intra=0 / bframes=3 / b_pyramid=2 / b_adapt=1 / b_bias=0 / direct=1 / weightb=1 / open_gop=0 / weightp=2 / keyint=250 / keyint_min=25 / scenecut=40 / intra_refresh=0 / rc_lookahead=40 / rc=2pass / mbtree=1 / bitrate=1500 / ratetol=1.0 / qcomp=0.60 / qpmin=0 / qpmax=81 / qpstep=4 / cplxblur=20.0 / qblur=0.5 / vbv_maxrate=150000 / vbv_bufsize=187500 / nal_hrd=none / filler=0 / ip_ratio=1.40 / aq=1:1.00
Language                    : Serbian
Default                     : Yes
Forced                      : No
Color range                 : Limited
Color primaries             : BT.601 PAL
Transfer characteristics    : BT.709
Matrix coefficients         : BT.601
Statistics Tags Issue       : mkvmerge v25.0.0 ('Prog Noir') 64-bit 2018-08-10 09:16:57 / mkvmerge v25.0.0 ('Prog Noir') 64-bit 2018-08-10 09:16:57 / UTC 2018-08-10T06:56:58Z
FromStats_BitRate           : 1499459
FromStats_Duration          : 01:42:27.000000000
FromStats_FrameCount        : 153675
FromStats_StreamSize        : 1152147294
 
Audio
ID                          : 2
Format                      : E-AC-3
Format/Info                 : Enhanced Audio Coding 3
Codec ID                    : A_EAC3
Duration                    : 1 h 42 min
Bit rate mode               : Constant
Bit rate                    : 256 kb/s
Channel(s)                  : 6 channels
Channel positions           : Front: L C R, Side: L R, LFE
Sampling rate               : 48.0 kHz
Frame rate                  : 187.500 FPS (256 SPF)
Compression mode            : Lossy
Delay relative to video     : -21 ms
Stream size                 : 188 MiB (15%)
Title                       : Turneja (2008)
Language                    : Serbian
Service kind                : Complete Main
Default                     : Yes
Forced                      : No
Statistics Tags Issue       : mkvmerge v25.0.0 ('Prog Noir') 64-bit 2018-08-10 09:16:57 / mkvmerge v25.0.0 ('Prog Noir') 64-bit 2018-08-10 09:16:57 / UTC 2018-08-10T06:56:58Z
FromStats_BitRate           : 256000
FromStats_Duration          : 01:42:15.040000000
FromStats_FrameCount        : 191720
FromStats_StreamSize        : 196321280
 
epYscVA.png
Hidden Content
You'll be able to see the hidden content once you thank this post.
 
kOTQiac.png
3BRtwqQ.jpg


Thanked by 90 Members:



0 user(s) are reading this topic

0 members, 0 guests, 0 anonymous users