Jump to content

Dobrodošli na Balkandownload.org
Tražite domaće knjige, exyu magazine, sinhronizirane crtane filmove, PC i ostale igre, strane i domaće filmove, dokumentarce, stranu i domaću muziku, itd. ? Ne morate tražiti dalje jer sve ćete to naći kod nas, uredno postavljeno i spremno za download. Osim toga registracijom možete sudjelovati u raznim postojećim temama na forumu, otvarati nove teme, sudjelovati u chatu i još mnogo toga. Ako već imaš otvoren račun, logiraj se ovde ,a ako želiš saznati zašto smo najbolji otvori novi račun i uverite se sami :)
Photo

The Time Guardian (1987)

1987

  • Please log in to reply
No replies to this topic

#1
LEMONZOO

LEMONZOO

    Advanced Member

  • VIP
  • PipPipPip
  • 739 posts
  • 2945 thanks
  • LocationGavran Mahala

The.Time.Guardian.(1987).DVDrip-THEO

timeguardian-1269199127djk.jpg

Please Login or Register to see this Hidden Content



In the distant future, the human race nears extinction and a new race of beast-like creatures rule the earth. The few surviving people live in the City, a huge protected construction with the ability to travel in both space and time. The City travels back to our time to save humanity...

General
Complete name               : The.Time.Guardian.(1987).DVDrip-THEO.avi
Format                      : AVI
Format/Info                 : Audio Video Interleave
File size                   : 1.27 GiB
Duration                    : 1h 26mn
Overall bit rate            : 2 106 Kbps
Writing application         : MEncoder dev-CVS-060307-04:23-4.0.1
Writing library             : MPlayer

Video
ID                          : 0
Format                      : MPEG-4 Visual
Format profile              : [email protected]
Format settings, BVOP       : No
Format settings, QPel       : No
Format settings, GMC        : No warppoints
Format settings, Matrix     : Default (H.263)
Codec ID                    : DIVX
Codec ID/Info               : Project Mayo
Codec ID/Hint               : DivX 4
Duration                    : 1h 26mn
Bit rate                    : 1 965 Kbps
Width                       : 720 pixels
Height                      : 304 pixels
Display aspect ratio        : 2.35:1
Frame rate                  : 25.000 fps
Color space                 : YUV
Chroma subsampling          : 4:2:0
Bit depth                   : 8 bits
Scan type                   : Progressive
Compression mode            : Lossy
Bits/(Pixel*Frame)          : 0.359
Stream size                 : 1.18 GiB (93%)
Writing library             : Lavc51.7.0

Audio
ID                          : 1
Format                      : MPEG Audio
Format version              : Version 1
Format profile              : Layer 3
Mode                        : Joint stereo
Mode extension              : MS Stereo
Codec ID                    : 55
Codec ID/Hint               : MP3
Duration                    : 1h 26mn
Bit rate mode               : Constant
Bit rate                    : 128 Kbps
Channel(s)                  : 2 channels
Sampling rate               : 48.0 KHz
Compression mode            : Lossy
Stream size                 : 78.9 MiB (6%)
Alignment                   : Aligned on interleaves
Interleave, duration        : 24 ms (0.60 video frame)
Interleave, preload duratio : 504 ms
Writing library             : LAME3.98 (alpha)




the.time.guardian.198lie6h.jpg

the.time.guardian.198lbfwp.jpg

the.time.guardian.198c1ezc.jpg

the.time.guardian.198zffrj.jpg

the.time.guardian.198hae8y.jpg

the.time.guardian.1987ydre.jpg

the.time.guardian.1986hfin.jpg

Hidden Content
You'll be able to see the hidden content once you thank this post.


Thanked by 2 Members:
Ivan5 , marjanv




Also tagged with one or more of these keywords: 1987

0 user(s) are reading this topic

0 members, 0 guests, 0 anonymous users