Jump to content

Dobrodošli na Balkandownload.org
Tražite domaće knjige, exyu magazine, sinhronizirane crtane filmove, PC i ostale igre, strane i domaće filmove, dokumentarce, stranu i domaću muziku, itd. ? Ne morate tražiti dalje jer sve ćete to naći kod nas, uredno postavljeno i spremno za download. Osim toga registracijom možete sudjelovati u raznim postojećim temama na forumu, otvarati nove teme, sudjelovati u chatu i još mnogo toga. Ako već imaš otvoren račun, logiraj se ovde ,a ako želiš saznati zašto smo najbolji otvori novi račun i uverite se sami :)

White Dwarf (1995)

1995 sad

  • Please log in to reply
No replies to this topic



    Advanced Member

  • VIP
  • PipPipPip
  • 716 posts
  • 2186 thanks
  • LocationGavran Mahala

White Dwarf (1995)


Please Login or Register to see this Hidden Content

In a distant future New York medical student Driscoll Rampart accomplishes his internship at Rusta, a rural planet that doesn't revolve around its axis and therefore is divided into contrasting halves of eternal day vs. eternal night. One is a Victorian-styled colony, the other a medieval kingdom. Both leave Rampart in a state of constant wonder, as he finds his way among humans and aliens, strange dreams and even stranger reality, a dark keep and a red sea, and more universal matters of war and peace, good and bad, love and hate and sickness and health.

Complete name               : White Dwarf (1995).avi
Format                      : AVI
Format/Info                 : Audio Video Interleave
File size                   : 700 MiB
Duration                    : 1h 26mn
Overall bit rate            : 1 129 Kbps
Writing application         : VirtualDubMod (build 2178/release)
Writing library             : VirtualDubMod build 2178/release

ID                          : 0
Format                      : MPEG-4 Visual
Format profile              : Advanced [email protected]
Format settings, BVOP       : 1
Format settings, QPel       : No
Format settings, GMC        : No warppoints
Format settings, Matrix     : Custom
Codec ID                    : XVID
Codec ID/Hint               : XviD
Duration                    : 1h 26mn
Bit rate                    : 931 Kbps
Width                       : 640 pixels
Height                      : 480 pixels
Display aspect ratio        : 4:3
Frame rate                  : 25.000 fps
Color space                 : YUV
Chroma subsampling          : 4:2:0
Bit depth                   : 8 bits
Scan type                   : Progressive
Compression mode            : Lossy
Bits/(Pixel*Frame)          : 0.121
Stream size                 : 577 MiB (82%)
Writing library             : XviD 1.2.1 (UTC 2008-12-04)

ID                          : 1
Format                      : AC-3
Format/Info                 : Audio Coding 3
Mode extension              : CM (complete main)
Format settings, Endianness : Big
Codec ID                    : 2000
Duration                    : 1h 26mn
Bit rate mode               : Constant
Bit rate                    : 192 Kbps
Channel(s)                  : 2 channels
Channel positions           : Front: L R
Sampling rate               : 48.0 KHz
Bit depth                   : 16 bits
Compression mode            : Lossy
Stream size                 : 119 MiB (17%)
Alignment                   : Split accross interleaves
Interleave, duration        : 96 ms (2.40 video frames)
Interleave, preload duratio : 96 ms















Hidden Content
You'll be able to see the hidden content once you thank this post.

Thanked by 1 Member:

Also tagged with one or more of these keywords: 1995, sad

0 user(s) are reading this topic

0 members, 0 guests, 0 anonymous users