Jump to content

Dobrodošli na Balkandownload.org
Tražite domaće knjige, exyu magazine, sinhronizirane crtane filmove, PC i ostale igre, strane i domaće filmove, dokumentarce, stranu i domaću muziku, itd. ? Ne morate tražiti dalje jer sve ćete to naći kod nas, uredno postavljeno i spremno za download. Osim toga registracijom možete sudjelovati u raznim postojećim temama na forumu, otvarati nove teme, sudjelovati u chatu i još mnogo toga. Ako već imaš otvoren račun, logiraj se ovde ,a ako želiš saznati zašto smo najbolji otvori novi račun i uverite se sami :)
Photo

Killer Workout (1987) AKA Aerobicide

sad slasher horor

  • Please log in to reply
No replies to this topic

#1
LEMONZOO

LEMONZOO

    Advanced Member

  • VIP
  • PipPipPip
  • 739 posts
  • 3004 thanks
  • LocationGavran Mahala

Aerobicide (1986) (Aka Killer Workout) Dvdrip

kw54ys0w.jpg

Please Login or Register to see this Hidden Content



 Two years ago, a young woman named Valerie was burned after entering a tanning salon. Now, her twin sister, Rhonda runs a local gym where all of a sudden, people are being murdered.

General
Complete name               : Aerobicide (1986) (Aka Killer Workout) Dvdrip.avi
Format                      : AVI
Format/Info                 : Audio Video Interleave
File size                   : 700 MiB
Duration                    : 1h 22mn
Overall bit rate mode       : Variable
Overall bit rate            : 1 194 Kbps

Video
ID                          : 0
Format                      : MPEG-4 Visual
Format settings, BVOP       : 1
Format settings, QPel       : No
Format settings, GMC        : No warppoints
Format settings, Matrix     : Default (H.263)
Muxing mode                 : Packed bitstream
Codec ID                    : DX50
Codec ID/Hint               : DivX 5
Duration                    : 1h 22mn
Bit rate                    : 1 092 Kbps
Width                       : 640 pixels
Height                      : 464 pixels
Display aspect ratio        : 1.379
Frame rate                  : 25.000 fps
Color space                 : YUV
Chroma subsampling          : 4:2:0
Bit depth                   : 8 bits
Scan type                   : Progressive
Compression mode            : Lossy
Bits/(Pixel*Frame)          : 0.147
Stream size                 : 641 MiB (91%)
Title                       : Video
Writing library             : DivX 5.2.1 Alpha (UTC 2004-09-08)

Audio
ID                          : 1
Format                      : MPEG Audio
Format version              : Version 1
Format profile              : Layer 3
Mode                        : Joint stereo
Mode extension              : MS Stereo
Codec ID                    : 55
Codec ID/Hint               : MP3
Duration                    : 1h 22mn
Bit rate mode               : Variable
Bit rate                    : 96.0 Kbps
Channel(s)                  : 2 channels
Sampling rate               : 44.1 KHz
Compression mode            : Lossy
Stream size                 : 52.2 MiB (7%)
Alignment                   : Aligned on interleaves
Interleave, duration        : 26 ms (0.65 video frame)
Interleave, preload duratio : 452 ms
Title                       : Audio



aerobicide-1986-aka-kpydjs.jpg

aerobicide-1986-aka-krhct9.jpg

aerobicide-1986-aka-kjnc6d.jpg

aerobicide-1986-aka-kdpedc.jpg

aerobicide-1986-aka-kbvcw1.jpg

aerobicide-1986-aka-ko4cxs.jpg

Hidden Content
You'll be able to see the hidden content once you thank this post.


Thanked by 1 Member:
iboy321




Also tagged with one or more of these keywords: sad, slasher, horor

0 user(s) are reading this topic

0 members, 0 guests, 0 anonymous users