Jump to content

Dobrodošli na Balkandownload.org
Tražite domaće knjige, exyu magazine, sinhronizirane crtane filmove, PC i ostale igre, strane i domaće filmove, dokumentarce, stranu i domaću muziku, itd. ? Ne morate tražiti dalje jer sve ćete to naći kod nas, uredno postavljeno i spremno za download. Osim toga registracijom možete sudjelovati u raznim postojećim temama na forumu, otvarati nove teme, sudjelovati u chatu i još mnogo toga. Ako već imaš otvoren račun, logiraj se ovde ,a ako želiš saznati zašto smo najbolji otvori novi račun i uverite se sami :)
Photo

Hasta el viento tiene miedo (1968) AKA Even the Wind Is Afraid

horor meksiko

  • Please log in to reply
No replies to this topic

#1
LEMONZOO

LEMONZOO

    Advanced Member

  • VIP
  • PipPipPip
  • 739 posts
  • 3053 thanks
  • LocationGavran Mahala

Hasta el viento tiene miedo.1968.DVDRIP.x264-CG

hasta-el-viento-tiene7rynl.jpg

Please Login or Register to see this Hidden Content



 Girls that were punished to sat at a boarding school during Spring Break have no idea the school is haunted by the restless spirit of a former student seeking revenge.

General
Unique ID                   : 240931961201158004702969008724176065780 (0xB541CED028382CFD9229CF3D397CD4F4)
Complete name               : Hasta el viento tiene miedo.1968.DVDRIP.x264-CG.mkv
Format                      : Matroska
Format version              : Version 4 / Version 2
File size                   : 1.45 GiB
Duration                    : 1h 28mn
Overall bit rate            : 2 357 Kbps
Encoded date                : UTC 2010-02-22 21:41:31
Writing application         : mkvmerge v5.9.0 ('On The Loose') built on Dec  9 2012 15:37:01
Writing library             : libebml v1.3.0 + libmatroska v1.4.0

Video
ID                          : 1
Format                      : AVC
Format/Info                 : Advanced Video Codec
Format profile              : [email protected]
Format settings, CABAC      : Yes
Format settings, ReFrames   : 9 frames
Muxing mode                 : Header stripping
Codec ID                    : V_MPEG4/ISO/AVC
Duration                    : 1h 28mn
Bit rate                    : 1 972 Kbps
Width                       : 704 pixels
Height                      : 480 pixels
Display aspect ratio        : 4:3
Original display aspect rat : 4:3
Frame rate mode             : Constant
Frame rate                  : 23.976 fps
Standard                    : NTSC
Color space                 : YUV
Chroma subsampling          : 4:2:0
Bit depth                   : 8 bits
Scan type                   : Progressive
Bits/(Pixel*Frame)          : 0.243
Stream size                 : 1.19 GiB (82%)
Writing library             : x264 core 120
Encoding settings           : cabac=1 / ref=9 / deblock=1:-2:-2 / analyse=0x3:0x113 / me=umh / subme=9 / psy=1 / psy_rd=1.00:0.00 / mixed_ref=1 / me_range=24 / chroma_me=1 / trellis=2 / 8x8dct=1 / cqm=0 / deadzone=21,11 / fast_pskip=1 / chroma_qp_offset=-2 / threads=12 / sliced_threads=0 / nr=0 / decimate=1 / interlaced=0 / bluray_compat=0 / constrained_intra=0 / bframes=6 / b_pyramid=2 / b_adapt=2 / b_bias=0 / direct=3 / weightb=1 / open_gop=0 / weightp=1 / keyint=240 / keyint_min=24 / scenecut=40 / intra_refresh=0 / rc_lookahead=10 / rc=2pass / mbtree=1 / bitrate=1972 / ratetol=1.0 / qcomp=0.60 / qpmin=3 / qpmax=69 / qpstep=4 / cplxblur=20.0 / qblur=0.5 / ip_ratio=1.40 / aq=1:1.20
Language                    : English
Default                     : Yes
Forced                      : No
Color primaries             : BT.601 NTSC
Transfer characteristics    : BT.709
Matrix coefficients         : BT.601
Color range                 : Limited

Audio
ID                          : 2
Format                      : AC-3
Format/Info                 : Audio Coding 3
Mode extension              : CM (complete main)
Format settings, Endianness : Big
Muxing mode                 : Header stripping
Codec ID                    : A_AC3
Duration                    : 1h 28mn
Bit rate mode               : Constant
Bit rate                    : 384 Kbps
Channel(s)                  : 6 channels
Channel positions           : Front: L C R, Side: L R, LFE
Sampling rate               : 48.0 KHz
Bit depth                   : 16 bits
Compression mode            : Lossy
Stream size                 : 243 MiB (16%)
Language                    : Spanish
Default                     : Yes
Forced                      : No

Text
ID                          : 3
Format                      : UTF-8
Codec ID                    : S_TEXT/UTF8
Codec ID/Info               : UTF-8 Plain Text
Language                    : English
Default                     : Yes
Forced                      : No

Menu
00:00:00.000                : en:Chapter 1
00:07:03.756                : en:Chapter 2
00:15:10.242                : en:Chapter 3
00:21:52.102                : en:Chapter 4
00:30:09.599                : en:Chapter 5
00:33:17.286                : en:Chapter 6
00:41:51.800                : en:Chapter 7
00:52:42.951                : en:Chapter 8
01:00:57.987                : en:Chapter 9
01:08:42.451                : en:Chapter 10
01:16:51.898                : en:Chapter 11
01:21:28.675                : en:Chapter 12



hastaelvientotienemie45f48.jpg

hastaelvientotienemiek1dll.jpg

hastaelvientotienemieqhejh.jpg

hastaelvientotienemiebei28.jpg

hastaelvientotienemie7pck6.jpg

hastaelvientotienemiezedn3.jpg

hastaelvientotienemie3le76.jpg

Hidden Content
You'll be able to see the hidden content once you thank this post.






Also tagged with one or more of these keywords: horor, meksiko

0 user(s) are reading this topic

0 members, 0 guests, 0 anonymous users