Jump to content

Dobrodošli na Balkandownload.org
Tražite domaće knjige, exyu magazine, sinhronizirane crtane filmove, PC i ostale igre, strane i domaće filmove, dokumentarce, stranu i domaću muziku, itd. ? Ne morate tražiti dalje jer sve ćete to naći kod nas, uredno postavljeno i spremno za download. Osim toga registracijom možete sudjelovati u raznim postojećim temama na forumu, otvarati nove teme, sudjelovati u chatu i još mnogo toga. Ako već imaš otvoren račun, logiraj se ovde ,a ako želiš saznati zašto smo najbolji otvori novi račun i uverite se sami :)
Photo

Bai ri yan huo (2014) AKA Black Coal, Thin Ice

2014 kina

  • Please log in to reply
No replies to this topic

#1
LEMONZOO

LEMONZOO

    Advanced Member

  • VIP
  • PipPipPip
  • 739 posts
  • 3027 thanks
  • LocationGavran Mahala

Black Coal, Thin Ice.2014.DVDRip.x264.AC3.WahDee

hiRT6IK.jpg

Please Login or Register to see this Hidden Content



An ex cop and his ex partner decide to follow up on investigation of a series of murders that ended their careers and shamed them, when identical murders begin again.

General
Unique ID                                : 38686624218444887152478394432855459027 (0x1D1AC5D66A1E098B6471489E449FC4D3)
Complete name                            : Black Coal, Thin Ice.2014.DVDRip.x264.AC3.WahDee.mkv
Format                                   : Matroska
Format version                           : Version 2
File size                                : 1.79 GiB
Duration                                 : 1h 44mn
Overall bit rate                         : 2 450 Kbps
Writing application                      : HandBrake 0.9.6
Writing library                          : libmkv 0.6.5

Video
ID                                       : 1
Format                                   : AVC
Format/Info                              : Advanced Video Codec
Format profile                           : [email protected]
Format settings, CABAC                   : Yes
Format settings, ReFrames                : 3 frames
Codec ID                                 : V_MPEG4/ISO/AVC
Duration                                 : 1h 44mn
Bit rate                                 : 2 000 Kbps
Width                                    : 720 pixels
Height                                   : 384 pixels
Display aspect ratio                     : 1.85:1
Frame rate mode                          : Constant
Frame rate                               : 25.000 fps
Color space                              : YUV
Chroma subsampling                       : 4:2:0
Bit depth                                : 8 bits
Scan type                                : Progressive
Bits/(Pixel*Frame)                       : 0.289
Stream size                              : 1.43 GiB (80%)
Writing library                          : x264 core 120
Encoding settings                        : cabac=1 / ref=3 / deblock=1:1:-2 / analyse=0x1:0 / me=umh / subme=7 / psy=1 / psy_rd=1.00:0.00 / mixed_ref=1 / me_range=16 / chroma_me=1 / trellis=2 / 8x8dct=0 / cqm=0 / deadzone=21,11 / fast_pskip=1 / chroma_qp_offset=-2 / threads=6 / sliced_threads=0 / nr=0 / decimate=1 / interlaced=0 / bluray_compat=0 / constrained_intra=0 / bframes=16 / b_pyramid=0 / b_adapt=1 / b_bias=0 / direct=1 / weightb=1 / open_gop=0 / weightp=2 / keyint=250 / keyint_min=25 / scenecut=40 / intra_refresh=0 / rc_lookahead=40 / rc=2pass / mbtree=1 / bitrate=2000 / ratetol=1.0 / qcomp=0.60 / qpmin=3 / qpmax=69 / qpstep=4 / cplxblur=20.0 / qblur=0.5 / ip_ratio=1.40 / aq=1:1.00
Language                                 : English
Default                                  : Yes
Forced                                   : No
Color primaries                          : BT.601 NTSC
Transfer characteristics                 : BT.709
Matrix coefficients                      : BT.601

Audio
ID                                       : 2
Format                                   : AC-3
Format/Info                              : Audio Coding 3
Mode extension                           : CM (complete main)
Format settings, Endianness              : Big
Codec ID                                 : A_AC3
Duration                                 : 1h 44mn
Bit rate mode                            : Constant
Bit rate                                 : 448 Kbps
Channel count                            : 6 channels
Channel positions                        : Front: L C R, Side: L R, LFE
Sampling rate                            : 48.0 KHz
Bit depth                                : 16 bits
Compression mode                         : Lossy
Stream size                              : 336 MiB (18%)
Language                                 : Chinese
Default                                  : Yes
Forced                                   : No

Text
ID                                       : 3
Format                                   : VobSub
Codec ID                                 : S_VOBSUB
Codec ID/Info                            : The same subtitle format used on DVDs
Language                                 : English
Default                                  : Yes
Forced                                   : No

Menu
00:00:00.000                             : Chapter 1
00:07:44.280                             : Chapter 2
00:15:20.880                             : Chapter 3
00:23:40.280                             : Chapter 4
00:31:05.880                             : Chapter 5
00:39:02.080                             : Chapter 6
00:49:26.240                             : Chapter 7
01:01:10.320                             : Chapter 8
01:13:04.160                             : Chapter 9
01:19:12.120                             : Chapter 10
01:30:00.080                             : Chapter 11
01:41:37.520                             : Chapter 12



blackcoalthinice.2014qdup4.jpg

blackcoalthinice.2014n4ulg.jpg

blackcoalthinice.2014qcu3e.jpg

blackcoalthinice.2014gnu7c.jpg

blackcoalthinice.2014uduu8.jpg

blackcoalthinice.2014b9uds.jpg

Hidden Content
You'll be able to see the hidden content once you thank this post.

Engleski titl u containeru.

Edited by LEMONZOO, 08 January 2015 - 19:18.


Thanked by 1 Member:
Svilesis




Also tagged with one or more of these keywords: 2014, kina

0 user(s) are reading this topic

0 members, 0 guests, 0 anonymous users