Jump to content

Dobrodošli na Balkandownload.org
Tražite domaće knjige, exyu magazine, sinhronizirane crtane filmove, PC i ostale igre, strane i domaće filmove, dokumentarce, stranu i domaću muziku, itd. ? Ne morate tražiti dalje jer sve ćete to naći kod nas, uredno postavljeno i spremno za download. Osim toga registracijom možete sudjelovati u raznim postojećim temama na forumu, otvarati nove teme, sudjelovati u chatu i još mnogo toga. Ako već imaš otvoren račun, logiraj se ovde ,a ako želiš saznati zašto smo najbolji otvori novi račun i uverite se sami :)
Photo

Tango Argentino (1992)


2 replies to this topic

#1
Zoran_

Zoran_

    Gold Member

  • VIP
  • PipPipPipPipPipPip
  • 5,983 posts
  • 149012 thanks

Tango Argentino (1992)


TangoArgentino1992.png

imdb6.jpg

Please Login or Register to see this Hidden Content


Slom jednopartijskog politickog sistema izazvao je potres na socijalnom planu Jugoslavije. U okolnostima raslojavanja porodice, zivi decak ciji roditelji ne umeju da se snadu. Otac, profesor muzike, obavlja cudne poslove ne bi li ostvario dopunsku zaradu, a majka, prevodilac, prihvata da za skromnu naknadu pomaze starijim i iznemoglim. Uskocivsi iznenada u "posao" svoje majke, decak pocinje da budi starce, da pokrece njihove uspavane duse, da im ubrizgava volju za zivotom, da ih okuplja i zblizava. Ali, u susretu sa ostarelim ljudima i decak je na dobitku: dobija ono Sto mu je porodica uskratila - ljubav, razumevanje, paznju i toplinu. Medutim, bioloski zakoni deluju i decakovi prijatelji polako nestaju i on pocinje da oseca bolne gubitke. Sa poslednjim starcem, bez znanja roditelja, decak ce pobeci na more i provesti nekoliko nezaboravnih dana. Decaku je to prva zagledanost u plavetnilo, starcu poslednja...

Molbe za moje linkove, šaljite na PP.

 

Zabranjeno je kopiranje mojih linkova,reupload i postavljanje na druge forume!


Thanked by 19 Members:
Dijana1974 , Shey , Sofiamia , zvonkora , antonio67 , osinium , Capobic1111 , vajtaun , Zare94 , deluti , slomljenakrila , sneki811 , brana63 , pileboy , musicbox , Zelenac1 , micato90 , mimi01 , dragan84

#2
Zoran_

Zoran_

    Gold Member

  • VIP
  • PipPipPipPipPipPip
  • 5,983 posts
  • 149012 thanks
Tango Argentino (1992)
 
 
TangoArgentino1992.png
 
Su6Ksi6.jpg
 

Please Login or Register to see this Hidden Content

 
Slom jednopartijskog politickog sistema izazvao je potres na socijalnom planu Jugoslavije. U okolnostima raslojavanja porodice, zivi decak ciji roditelji ne umeju da se snadu. Otac, profesor muzike, obavlja cudne poslove ne bi li ostvario dopunsku zaradu, a majka, prevodilac, prihvata da za skromnu naknadu pomaze starijim i iznemoglim. Uskocivsi iznenada u "posao" svoje majke, decak pocinje da budi starce, da pokrece njihove uspavane duse, da im ubrizgava volju za zivotom, da ih okuplja i zblizava. Ali, u susretu sa ostarelim ljudima i decak je na dobitku: dobija ono Sto mu je porodica uskratila - ljubav, razumevanje, paznju i toplinu. Medutim, bioloski zakoni deluju i decakovi prijatelji polako nestaju i on pocinje da oseca bolne gubitke. Sa poslednjim starcem, bez znanja roditelja, decak ce pobeci na more i provesti nekoliko nezaboravnih dana. Decaku je to prva zagledanost u plavetnilo, starcu poslednja...
 
s7vaq9i8a2b.png
 
TangoArgentino1992.avi.gif
 
TangoArgentino1992.avi.jpg
 
Oets6ur.gif
 
Tango Argentino (1992) DVDRip avi
 
SFYUbuP.jpg
 
Hidden Content
You'll be able to see the hidden content once you thank this post.

Molbe za moje linkove, šaljite na PP.

 

Zabranjeno je kopiranje mojih linkova,reupload i postavljanje na druge forume!


Thanked by 39 Members:
saletoohot , jadjonbv , goransokolovic.fr , 303808909 , rikee , milanalorica , barra64 , james12320 , zlatkotony , vajtaun , Dijana1974 , sale pn , cowboy6812 , AccccO , megastraus , MiraDr , Sofiamia , Crna.Orhideja , dj1van , duledudule , Alamo74 , direhard , satserb , balkanmmb , kockari , zoran48 , zmija_p , novicanovica , fffunkymannn , Jokso , MP22 , kresomirovic , 011gogo , salgija , Franci , dzogani , Korto74 , Nebojsa1985 , Miki_Kiki_Riki

#3
Wolf 13

Wolf 13

    Advanced Member

  • Members
  • PipPipPip
  • 426 posts
  • 33310 thanks
Tango argentino (1992) DVDrip AC3 5.1 x264 by Wolf
(MKV) HQ
 
6Ofskhp.jpg
 

Please Login or Register to see this Hidden Content

 

General
Unique ID                   : 212913891469004728363717720009802686412 (0xA02DB95288AC2F410282AF7D96469FCC)
Complete name               : Tango argentino (1992) DVDrip AC3 5.1 x264 by Wolf.mkv
Format                      : Matroska
Format version              : Version 4
File size                   : 1.11 GiB
Duration                    : 1 h 30 min
Overall bit rate            : 1 758 kb/s
Encoded date                : UTC 2019-01-07 18:02:06 / UTC 2019-01-05T18:24:19Z
Writing application         : mkvmerge v30.1.0 ('Forever And More') 64-bit
Writing library             : libebml v1.3.6 + libmatroska v1.4.9 / Lavf57.7.2
 
Video
ID                          : 1
Format                      : AVC
Format/Info                 : Advanced Video Codec
Format profile              : [email protected]
Format settings             : CABAC / 8 Ref Frames
Format settings, CABAC      : Yes
Format settings, ReFrames   : 8 frames
Codec ID                    : V_MPEG4/ISO/AVC
Duration                    : 1 h 30 min
Bit rate                    : 1 500 kb/s
Width                       : 982 pixels
Height                      : 584 pixels
Display aspect ratio        : 16:9
Original display aspect rat : 5:3
Frame rate mode             : Constant
Frame rate                  : 25.000 FPS
Color space                 : YUV
Chroma subsampling          : 4:2:0
Bit depth                   : 8 bits
Scan type                   : Progressive
Bits/(Pixel*Frame)          : 0.105
Stream size                 : 948 MiB (83%)
Title                       : Tango argentino (1992)
Writing library             : x264 core 155 r2901 7d0ff22
Encoding settings           : cabac=1 / ref=8 / deblock=1:-1:-1 / analyse=0x3:0x133 / me=umh / subme=9 / psy=1 / psy_rd=1.00:0.15 / mixed_ref=1 / me_range=16 / chroma_me=1 / trellis=2 / 8x8dct=1 / cqm=0 / deadzone=21,11 / fast_pskip=1 / chroma_qp_offset=-3 / threads=6 / lookahead_threads=1 / sliced_threads=0 / nr=0 / decimate=1 / interlaced=0 / bluray_compat=0 / constrained_intra=0 / bframes=3 / b_pyramid=2 / b_adapt=2 / b_bias=0 / direct=3 / weightb=1 / open_gop=0 / weightp=2 / keyint=250 / keyint_min=25 / scenecut=40 / intra_refresh=0 / rc_lookahead=60 / rc=2pass / mbtree=1 / bitrate=1500 / ratetol=1.0 / qcomp=0.60 / qpmin=0 / qpmax=69 / qpstep=4 / cplxblur=20.0 / qblur=0.5 / vbv_maxrate=300000 / vbv_bufsize=300000 / nal_hrd=none / filler=0 / ip_ratio=1.40 / aq=1:1.00
Language                    : Serbian
Default                     : Yes
Forced                      : No
Color range                 : Limited
Color primaries             : BT.709
Transfer characteristics    : BT.709
Matrix coefficients         : BT.709
Statistics Tags Issue       : mkvmerge v30.1.0 ('Forever And More') 64-bit 2019-01-07 18:02:06 / mkvmerge v30.1.0 ('Forever And More') 64-bit 2019-01-07 18:02:06 / UTC 2019-01-05T18:24:19Z
FromStats_BitRate           : 1500281
FromStats_Duration          : 01:30:19.240000000
FromStats_FrameCount        : 135454
FromStats_StreamSize        : 1016298486
 
Audio
ID                          : 2
Format                      : E-AC-3
Format/Info                 : Enhanced AC-3
Commercial name             : Dolby Digital Plus
Codec ID                    : A_EAC3
Duration                    : 1 h 30 min
Bit rate mode               : Constant
Bit rate                    : 256 kb/s
Channel(s)                  : 6 channels
Channel layout              : L R C LFE Ls Rs
Sampling rate               : 48.0 kHz
Frame rate                  : 31.250 FPS (1536 SPF)
Compression mode            : Lossy
Stream size                 : 165 MiB (15%)
Title                       : Tango argentino (1992)
Language                    : Serbian
Service kind                : Complete Main
Default                     : Yes
Forced                      : No
Statistics Tags Issue       : mkvmerge v30.1.0 ('Forever And More') 64-bit 2019-01-07 18:02:06 / mkvmerge v30.1.0 ('Forever And More') 64-bit 2019-01-07 18:02:06 / UTC 2019-01-05T18:24:19Z
FromStats_BitRate           : 256000
FromStats_Duration          : 01:30:19.232000000
FromStats_FrameCount        : 169351
FromStats_StreamSize        : 173415424
 
epYscVA.png
Hidden Content
You'll be able to see the hidden content once you thank this post.
 
l52ybjw.png
4GflRRX.jpg


Thanked by 36 Members:
saletoohot , mackosopa , 303808909 , liquid , rikee , cowboy6812 , runjaa , vajtaun , skrbiczoran , chefko , insider011 , mighty mara , kockari , megastraus , MiraDr , rafael13 , todorko85 , vlaha8 , internetcaffe , asceric , Sofiamia , Milfir , nocaronion , SaleXieri , beograd1960' , Franci , Zelenac1 , Jokso , icaleptir , danep , jumanjinz , dzimislav leone , rile1972 , 011gogo , Miki_Kiki_Riki , Milan1959



0 user(s) are reading this topic

0 members, 0 guests, 0 anonymous users