Jump to content

Dobrodošli na Balkandownload.org
Tražite domaće knjige, exyu magazine, sinhronizirane crtane filmove, PC i ostale igre, strane i domaće filmove, dokumentarce, stranu i domaću muziku, itd. ? Ne morate tražiti dalje jer sve ćete to naći kod nas, uredno postavljeno i spremno za download. Osim toga registracijom možete sudjelovati u raznim postojećim temama na forumu, otvarati nove teme, sudjelovati u chatu i još mnogo toga. Ako već imaš otvoren račun, logiraj se ovde ,a ako želiš saznati zašto smo najbolji otvori novi račun i uverite se sami :)
Photo

Perry Mason


  • Please log in to reply
1 reply to this topic

#1
LEMONZOO

LEMONZOO

    Advanced Member

  • VIP
  • PipPipPip
  • 739 posts
  • 3030 thanks
  • LocationGavran Mahala

Perry Mason (1957)

 

perry_masonyijbi.jpg

 

Please Login or Register to see this Hidden Content

 

There are few actors so closely tied to a persona than Raymond Burr as Perry Mason. This long-running series was built upon Erle Stanley Gardner´s many novels about a brilliant defense lawyer and his staff, that solved many a crime with surprise witnesses and stern cross-examinations. It was the first mystery series to feature chalk or tape outlines to mark the spots where bodies were found. Filmed almost exclusively in the Los Angeles area, Raymond Burr had Gardner's seal of approval in the role.
The cases were usually won by way of pivotal confessions of witnesses, solicited by Perry Mason (Burr's) surgeon-like examination or with last-minute, key evidence brought into the courtroom by private investigator Paul Drake (William Hopper). Della Street (Barbara Hale), Perry´s faithful secretary, was always at Perry's side in the courtroom where hapless Hamilton Burger (William Tallman) was the Los Angeles District Attorney who never seemed to win. As to the myth that Perry Mason never lost, there were two episodes where it did occur... but you'll have to watch to find out.
The show was revived in 1973-74, with other actors in the familiar roles (Monte Markham as Mason), and then again with the some of the original cast, in a string of feature length TV films from 1985 until Raymond Burr´s death in 1993.

 

General
Complete name               : PerryMason-9x01.TheLaughingLady.avi
Format                      : AVI
Format/Info                 : Audio Video Interleave
File size                   : 349 MiB
Duration                    : 49mn 26s
Overall bit rate mode       : Variable
Overall bit rate            : 988 Kbps
Writing application         : VirtualDubMod 1.5.10.1 (build 2439/release)
Writing library             : VirtualDubMod build 2439/release

Video
ID                          : 0
Format                      : MPEG-4 Visual
Format profile              : Advanced [email protected]
Format settings, BVOP       : 2
Format settings, QPel       : No
Format settings, GMC        : No warppoints
Format settings, Matrix     : Default (H.263)
Muxing mode                 : Packed bitstream
Codec ID                    : XVID
Codec ID/Hint               : XviD
Duration                    : 49mn 26s
Bit rate                    : 851 Kbps
Width                       : 416 pixels
Height                      : 312 pixels
Display aspect ratio        : 4:3
Frame rate                  : 29.970 fps
Color space                 : YUV
Chroma subsampling          : 4:2:0
Bit depth                   : 8 bits
Scan type                   : Progressive
Compression mode            : Lossy
Bits/(Pixel*Frame)          : 0.219
Stream size                 : 301 MiB (86%)
Writing library             : XviD 1.0.3 (UTC 2004-12-20)

Audio
ID                          : 1
Format                      : MPEG Audio
Format version              : Version 1
Format profile              : Layer 3
Mode                        : Dual mono
Codec ID                    : 55
Codec ID/Hint               : MP3
Duration                    : 49mn 26s
Bit rate mode               : Variable
Bit rate                    : 128 Kbps
Channel(s)                  : 2 channels
Sampling rate               : 48.0 KHz
Compression mode            : Lossy
Stream size                 : 43.7 MiB (13%)
Alignment                   : Aligned on interleaves
Interleave, duration        : 24 ms (0.72 video frame)
Interleave, preload duratio : 528 ms
Writing library             : LAME3.96r
Encoding settings           : -m d -V 4 -q 3 -lowpass 17.5 --abr 128

 

 

perrymason-9x01.thelanpjwh.jpg

 

perrymason-9x01.thelai0ks2.jpg

 

perrymason-9x01.thela16jmp.jpg

 

perrymason-9x01.thela1pj64.jpg

 

perrymason-9x01.thelaf6ji0.jpg

 

Season 9 (TVRip)

 

Hidden Content
You'll be able to see the hidden content once you thank this post.

 

Extras:

 

The Cast Plays Stump the Stars.avi
The Case of Erle Stanley Gardner Featurette.avi
Raymond Burr on Person to Person.avi
Perry Mason Talent Tests.avi
Interview with Barbara Hale.avi
Interview with Arthur Marks.avi
Interview with Anne Nelson.avi
Charlie Rose Interviews Raymond Burr.avi

 

Hidden Content
You'll be able to see the hidden content once you thank this post.

 

Titlovi:

Please Login or Register to see this Hidden Content


Edited by LEMONZOO, 18 January 2015 - 23:03.


Thanked by 2 Members:
goranprole , Prene

#2
LEMONZOO

LEMONZOO

    Advanced Member

  • VIP
  • PipPipPip
  • 739 posts
  • 3030 thanks
  • LocationGavran Mahala

Perry Mason Returns (1985) DVDRip

 

perry-mason-returns_5sopc7.jpg

 

Please Login or Register to see this Hidden Content

 

When his former secretary (Barbara Hale) is accused of a murder, Perry Mason (Raymond Burr) gives up a judgeship to defend her.

 

General
Complete name               : Perry Mason Returns (1985) DVDRip.avi
Format                      : AVI
Format/Info                 : Audio Video Interleave
File size                   : 700 MiB
Duration                    : 1h 36mn
Overall bit rate mode       : Variable
Overall bit rate            : 1 013 Kbps
Writing application         : VirtualDubMod 1.5.4.1 (build 2178/release)
Writing library             : VirtualDubMod build 2178/release

Video
ID                          : 0
Format                      : MPEG-4 Visual
Format profile              : Advanced [email protected]
Format settings, BVOP       : 1
Format settings, QPel       : No
Format settings, GMC        : No warppoints
Format settings, Matrix     : Custom
Codec ID                    : XVID
Codec ID/Hint               : XviD
Duration                    : 1h 36mn
Bit rate                    : 878 Kbps
Width                       : 624 pixels
Height                      : 464 pixels
Display aspect ratio        : 4:3
Frame rate                  : 23.976 fps
Color space                 : YUV
Chroma subsampling          : 4:2:0
Bit depth                   : 8 bits
Scan type                   : Progressive
Compression mode            : Lossy
Bits/(Pixel*Frame)          : 0.127
Stream size                 : 607 MiB (87%)
Writing library             : XviD 1.1.2 (UTC 2006-11-01)

Audio
ID                          : 1
Format                      : MPEG Audio
Format version              : Version 1
Format profile              : Layer 3
Mode                        : Joint stereo
Mode extension              : MS Stereo
Codec ID                    : 55
Codec ID/Hint               : MP3
Duration                    : 1h 36mn
Bit rate mode               : Variable
Bit rate                    : 122 Kbps
Nominal bit rate            : 144 Kbps
Channel(s)                  : 2 channels
Sampling rate               : 48.0 KHz
Compression mode            : Lossy
Stream size                 : 84.2 MiB (12%)
Alignment                   : Aligned on interleaves
Interleave, duration        : 24 ms (0.58 video frame)
Interleave, preload duratio : 151 ms
Writing library             : LAME3.97
Encoding settings           : -m j -V 4 -q 2 -lowpass 17.5 --abr 144
Language                    : English

 


perrymasonreturns1985rskvb.jpg

 

perrymasonreturns19859tka5.jpg

 

perrymasonreturns1985gdkzn.jpg

 

perrymasonreturns1985agjey.jpg

 

perrymasonreturns1985t0ksr.jpg

 

perrymasonreturns19857ajly.jpg

 

perrymasonreturns1985rijj4.jpg

 

perrymasonreturns1985q5ji2.jpg

 

Hidden Content
You'll be able to see the hidden content once you thank this post.

 

Titl:

Please Login or Register to see this Hidden Content



Thanked by 1 Member:
Prene



0 user(s) are reading this topic

0 members, 0 guests, 0 anonymous users