Jump to content

Dobrodošli na Balkandownload.org
Tražite domaće knjige, exyu magazine, sinhronizirane crtane filmove, PC i ostale igre, strane i domaće filmove, dokumentarce, stranu i domaću muziku, itd. ? Ne morate tražiti dalje jer sve ćete to naći kod nas, uredno postavljeno i spremno za download. Osim toga registracijom možete sudjelovati u raznim postojećim temama na forumu, otvarati nove teme, sudjelovati u chatu i još mnogo toga. Ako već imaš otvoren račun, logiraj se ovde ,a ako želiš saznati zašto smo najbolji otvori novi račun i uverite se sami :)
Photo

Killjoy (1981) AKA Who Murdered Joy Morgan?

1981 kim bassinger

  • Please log in to reply
No replies to this topic

#1
LEMONZOO

LEMONZOO

    Advanced Member

  • VIP
  • PipPipPip
  • 739 posts
  • 2988 thanks
  • LocationGavran Mahala

Killjoy (1981) AKA Who Murdered Joy Morgan? VHSRip

 

movie_1704679eu0c.jpg

 

 

Please Login or Register to see this Hidden Content

 

Story of a young woman's murder and the people who become involved with it.

 

 

General
Complete name               : CG.Killjoy (John Llewellyn Moxey,1981).RippedbyNefasto..avi
Format                      : AVI
Format/Info                 : Audio Video Interleave
File size                   : 1.67 GiB
Duration                    : 1h 32mn
Overall bit rate            : 2 591 Kbps
Writing library             : MPlayer

 

Video
ID                          : 0
Format                      : MPEG-4 Visual
Format profile              : Advanced [email protected]
Format settings, BVOP       : 2
Format settings, QPel       : No
Format settings, GMC        : No warppoints
Format settings, Matrix     : Default (H.263)
Codec ID                    : XVID
Codec ID/Hint               : XviD
Duration                    : 1h 32mn
Bit rate                    : 2 387 Kbps
Width                       : 640 pixels
Height                      : 480 pixels
Display aspect ratio        : 4:3
Frame rate                  : 25.000 fps
Color space                 : YUV
Chroma subsampling          : 4:2:0
Bit depth                   : 8 bits
Scan type                   : Progressive
Compression mode            : Lossy
Bits/(Pixel*Frame)          : 0.311
Stream size                 : 1.54 GiB (92%)
Writing library             : XviD 1.1.2 (UTC 2006-11-01)

 

Audio
ID                          : 1
Format                      : MPEG Audio
Format version              : Version 1
Format profile              : Layer 3
Mode                        : Joint stereo
Mode extension              : MS Stereo
Codec ID                    : 55
Codec ID/Hint               : MP3
Duration                    : 1h 32mn
Bit rate mode               : Constant
Bit rate                    : 192 Kbps
Channel(s)                  : 2 channels
Sampling rate               : 44.1 KHz
Compression mode            : Lossy
Delay relative to video     : 40ms
Stream size                 : 127 MiB (7%)
Alignment                   : Aligned on interleaves
Interleave, duration        : 26 ms (0.65 video frame)
Interleave, preload duratio : 809 ms

 


cg.killjoyjohnllewell3eurj.jpg

 

cg.killjoyjohnllewelldsuhe.jpg

 

cg.killjoyjohnllewelly0u1i.jpg

 

cg.killjoyjohnllewellr3uiy.jpg

 

cg.killjoyjohnllewellkxuzp.jpg

 

Hidden Content
You'll be able to see the hidden content once you thank this post.

With hardcoded Dutch subtitles.

 

Note from ripper:

Killjoy has had a UK dvd release, however with an apparent defective ending sequence. The following VHS rip has no defects at all apart from common print wear.


Edited by LEMONZOO, 04 February 2015 - 20:18.






Also tagged with one or more of these keywords: 1981, kim bassinger

0 user(s) are reading this topic

0 members, 0 guests, 0 anonymous users