Jump to content

Dobrodošli na Balkandownload.org
Tražite domaće knjige, exyu magazine, sinhronizirane crtane filmove, PC i ostale igre, strane i domaće filmove, dokumentarce, stranu i domaću muziku, itd. ? Ne morate tražiti dalje jer sve ćete to naći kod nas, uredno postavljeno i spremno za download. Osim toga registracijom možete sudjelovati u raznim postojećim temama na forumu, otvarati nove teme, sudjelovati u chatu i još mnogo toga. Ako već imaš otvoren račun, logiraj se ovde ,a ako želiš saznati zašto smo najbolji otvori novi račun i uverite se sami :)
Photo

Dalziel and Pascoe (1996)

1996 uk

  • Please log in to reply
5 replies to this topic

#1
LEMONZOO

LEMONZOO

    Advanced Member

  • VIP
  • PipPipPip
  • 736 posts
  • 2898 thanks
  • LocationGavran Mahala

Dalziel and Pascoe (1996)

 

dalziel_and_pascoerou4s.jpg

 

 

Please Login or Register to see this Hidden Content

 

Detective Superintendent Andy Dalziel and Detective Inspector Peter Pascoe, Reginald Hill's Yorkshire detectives, are another entry in a long line of excellent British police procedurals, a subgenre that may more truly define the British mystery than any other. Dalziel is middle-aged, fat, and a realist to the point just short of being a cynic. He is shrewd and a top-notch investigator. Pascoe is younger, college-educated, and on the way up. He's married and has one child. The series is given a certain edge by the fact that, while the men work well together and respect each other's abilities, they are not bosom buddies in the manner of so many detective teams. While working in the procedural vein and giving us a close-up picture of life in Yorkshire from the cities to the small mining towns, Hill still frequently provides clues and solutions worthy of a classic puzzle.

 

Series 1

 

 

General
Complete name               : Dalziel.and.Pascoe.S01E01.DVDRip.XviD.avi
Format                      : AVI
Format/Info                 : Audio Video Interleave
Format profile              : OpenDML
File size                   : 1.03 GiB
Duration                    : 1h 29mn
Overall bit rate            : 1 658 Kbps
Writing application         : Lavf54.63.104

Video
ID                          : 0
Format                      : MPEG-4 Visual
Format profile              : [email protected]
Format settings, BVOP       : No
Format settings, QPel       : No
Format settings, GMC        : No warppoints
Format settings, Matrix     : Default (H.263)
Codec ID                    : XVID
Codec ID/Hint               : XviD
Duration                    : 1h 29mn
Bit rate                    : 1 195 Kbps
Width                       : 720 pixels
Height                      : 576 pixels
Display aspect ratio        : 4:3
Frame rate                  : 25.000 fps
Standard                    : PAL
Color space                 : YUV
Chroma subsampling          : 4:2:0
Bit depth                   : 8 bits
Scan type                   : Progressive
Compression mode            : Lossy
Bits/(Pixel*Frame)          : 0.115
Stream size                 : 764 MiB (72%)
Writing library             : XviD 64

Audio
ID                          : 1
Format                      : AC-3
Format/Info                 : Audio Coding 3
Codec ID                    : 00001000-0000-0020-8000-00AA00389B71
Duration                    : 1h 29mn
Bit rate                    : 448 Kbps
Channel(s)                  : 6 channels
Channel positions           : Front: L C R, Side: L R, LFE
Sampling rate               : 48.0 KHz
Bit depth                   : 16 bits
Compression mode            : Lossy
Stream size                 : 286 MiB (27%)
Interleave, duration        : 32 ms (0.80 video frame)

 


dalziel.and.pascoe.s0l4uta.jpg

 

dalziel.and.pascoe.s0kgum5.jpg

 

dalziel.and.pascoe.s0xiuxw.jpg

 

dalziel.and.pascoe.s0s6uxg.jpg

 

Hidden Content
You'll be able to see the hidden content once you thank this post.

Titlovi:

Please Login or Register to see this Hidden Content


Edited by LEMONZOO, 07 February 2015 - 18:49.


#2
LEMONZOO

LEMONZOO

    Advanced Member

  • VIP
  • PipPipPip
  • 736 posts
  • 2898 thanks
  • LocationGavran Mahala

Series 2

General
Complete name               : Dalziel.and.Pascoe.S02E01.DVDRip.XviD.avi
Format                      : AVI
Format/Info                 : Audio Video Interleave
Format profile              : OpenDML
File size                   : 1.08 GiB
Duration                    : 1h 33mn
Overall bit rate            : 1 657 Kbps
Writing application         : Lavf54.63.104

Video
ID                          : 0
Format                      : MPEG-4 Visual
Format profile              : [email protected]
Format settings, BVOP       : No
Format settings, QPel       : No
Format settings, GMC        : No warppoints
Format settings, Matrix     : Default (H.263)
Codec ID                    : XVID
Codec ID/Hint               : XviD
Duration                    : 1h 33mn
Bit rate                    : 1 195 Kbps
Width                       : 720 pixels
Height                      : 576 pixels
Display aspect ratio        : 4:3
Frame rate                  : 25.000 fps
Standard                    : PAL
Color space                 : YUV
Chroma subsampling          : 4:2:0
Bit depth                   : 8 bits
Scan type                   : Progressive
Compression mode            : Lossy
Bits/(Pixel*Frame)          : 0.115
Stream size                 : 795 MiB (72%)
Writing library             : XviD 64

Audio
ID                          : 1
Format                      : AC-3
Format/Info                 : Audio Coding 3
Codec ID                    : 00001000-0000-0020-8000-00AA00389B71
Duration                    : 1h 33mn
Bit rate                    : 448 Kbps
Channel(s)                  : 6 channels
Channel positions           : Front: L C R, Side: L R, LFE
Sampling rate               : 48.0 KHz
Bit depth                   : 16 bits
Compression mode            : Lossy
Stream size                 : 298 MiB (27%)
Interleave, duration        : 32 ms (0.80 video frame)


dalziel.and.pascoe.s0csurj.jpg

dalziel.and.pascoe.s0apuan.jpg

dalziel.and.pascoe.s01tust.jpg

dalziel.and.pascoe.s0rquph.jpg

Hidden Content
You'll be able to see the hidden content once you thank this post.

Titlovi:

Please Login or Register to see this Hidden Content



#3
LEMONZOO

LEMONZOO

    Advanced Member

  • VIP
  • PipPipPip
  • 736 posts
  • 2898 thanks
  • LocationGavran Mahala

Dalziel.and.Pascoe.S03.DVDRip.XviD-aAF

 

General
Complete name               : aaf-dalziel.and.pascoe.s03e01.under.world.dvdrip.xvid.avi
Format                      : AVI
Format/Info                 : Audio Video Interleave
File size                   : 700 MiB
Duration                    : 1h 33mn
Overall bit rate mode       : Variable
Overall bit rate            : 1 045 Kbps
Writing application         : VirtualDubMod 1.5.10.2 (build 2540/release)
Writing library             : VirtualDubMod build 2540/release

Video
ID                          : 0
Format                      : MPEG-4 Visual
Format profile              : Advanced [email protected]
Format settings, BVOP       : 2
Format settings, QPel       : No
Format settings, GMC        : No warppoints
Format settings, Matrix     : Default (H.263)
Codec ID                    : XVID
Codec ID/Hint               : XviD
Duration                    : 1h 33mn
Bit rate                    : 902 Kbps
Width                       : 624 pixels
Height                      : 352 pixels
Display aspect ratio        : 16:9
Frame rate                  : 25.000 fps
Color space                 : YUV
Chroma subsampling          : 4:2:0
Bit depth                   : 8 bits
Scan type                   : Progressive
Compression mode            : Lossy
Bits/(Pixel*Frame)          : 0.164
Stream size                 : 604 MiB (86%)
Writing library             : XviD 62

Audio
ID                          : 1
Format                      : MPEG Audio
Format version              : Version 1
Format profile              : Layer 3
Mode                        : Joint stereo
Mode extension              : MS Stereo
Codec ID                    : 55
Codec ID/Hint               : MP3
Duration                    : 1h 33mn
Bit rate mode               : Variable
Bit rate                    : 128 Kbps
Channel(s)                  : 2 channels
Sampling rate               : 48.0 KHz
Compression mode            : Lossy
Stream size                 : 86.9 MiB (12%)
Alignment                   : Aligned on interleaves
Interleave, duration        : 24 ms (0.60 video frame)
Interleave, preload duratio : 482 ms
Writing library             : LAME3.90.
Encoding settings           : -m j -V 4 -q 2 -lowpass 17.6 --abr 128

 

aaf-dalziel.and.pascorhsxs.jpg

 

aaf-dalziel.and.pascotiszb.jpg

 

aaf-dalziel.and.pascoucsuh.jpg

 

aaf-dalziel.and.pascoomst7.jpg

 

Hidden Content
You'll be able to see the hidden content once you thank this post.

 

Titlovi:


Please Login or Register to see this Hidden Content



#4
LEMONZOO

LEMONZOO

    Advanced Member

  • VIP
  • PipPipPip
  • 736 posts
  • 2898 thanks
  • LocationGavran Mahala

Dalziel.and.Pascoe.S04.DVDRip.XviD-aAF

General
Complete name               : aaf-dalziel.and.pascoe.s04e01.on.beulah.height.dvdrip.xvid.avi
Format                      : AVI
Format/Info                 : Audio Video Interleave
File size                   : 700 MiB
Duration                    : 1h 34mn
Overall bit rate mode       : Variable
Overall bit rate            : 1 040 Kbps
Writing application         : VirtualDubMod 1.5.10.2 (build 2540/release)
Writing library             : VirtualDubMod build 2540/release

Video
ID                          : 0
Format                      : MPEG-4 Visual
Format profile              : Advanced [email protected]
Format settings, BVOP       : 2
Format settings, QPel       : No
Format settings, GMC        : No warppoints
Format settings, Matrix     : Default (H.263)
Codec ID                    : XVID
Codec ID/Hint               : XviD
Duration                    : 1h 34mn
Bit rate                    : 896 Kbps
Width                       : 624 pixels
Height                      : 352 pixels
Display aspect ratio        : 16:9
Frame rate                  : 25.000 fps
Color space                 : YUV
Chroma subsampling          : 4:2:0
Bit depth                   : 8 bits
Scan type                   : Progressive
Compression mode            : Lossy
Bits/(Pixel*Frame)          : 0.163
Stream size                 : 603 MiB (86%)
Writing library             : XviD 62

Audio
ID                          : 1
Format                      : MPEG Audio
Format version              : Version 1
Format profile              : Layer 3
Mode                        : Joint stereo
Mode extension              : MS Stereo
Codec ID                    : 55
Codec ID/Hint               : MP3
Duration                    : 1h 34mn
Bit rate mode               : Variable
Bit rate                    : 128 Kbps
Channel(s)                  : 2 channels
Sampling rate               : 48.0 KHz
Compression mode            : Lossy
Stream size                 : 87.9 MiB (13%)
Alignment                   : Aligned on interleaves
Interleave, duration        : 24 ms (0.60 video frame)
Interleave, preload duratio : 488 ms
Writing library             : LAME3.90.
Encoding settings           : -m j -V 4 -q 2 -lowpass 17.6 --abr 128

aaf-dalziel.and.pascojhu2c.jpg

aaf-dalziel.and.pascoh0upn.jpg

aaf-dalziel.and.pasconound.jpg

aaf-dalziel.and.pascobmu6e.jpg

Hidden Content
You'll be able to see the hidden content once you thank this post.

Titlovi:

Please Login or Register to see this Hidden Content



#5
LEMONZOO

LEMONZOO

    Advanced Member

  • VIP
  • PipPipPip
  • 736 posts
  • 2898 thanks
  • LocationGavran Mahala

Dalziel.and.Pascoe.S05

Hidden Content
You'll be able to see the hidden content once you thank this post.


Edited by LEMONZOO, 14 September 2015 - 20:17.


Thanked by 1 Member:
balkankankan

#6
LEMONZOO

LEMONZOO

    Advanced Member

  • VIP
  • PipPipPip
  • 736 posts
  • 2898 thanks
  • LocationGavran Mahala

Dalziel.and.Pascoe.S06.DVDRip.XviD-aAF

Hidden Content
You'll be able to see the hidden content once you thank this post.

Dalziel.And.Pascoe.S07.DVDRip.XviD-aAF

Hidden Content
You'll be able to see the hidden content once you thank this post.

Dalziel.and.Pascoe.S08.DVDRip.XviD-PFa

Hidden Content
You'll be able to see the hidden content once you thank this post.

Titlovi:

Please Login or Register to see this Hidden Content



Thanked by 3 Members:
balkankankan , FatBitch , peoklwki




Also tagged with one or more of these keywords: 1996, uk

0 user(s) are reading this topic

0 members, 0 guests, 0 anonymous users