Jump to content

Dobrodošli na Balkandownload.org
Tražite domaće knjige, exyu magazine, sinhronizirane crtane filmove, PC i ostale igre, strane i domaće filmove, dokumentarce, stranu i domaću muziku, itd. ? Ne morate tražiti dalje jer sve ćete to naći kod nas, uredno postavljeno i spremno za download. Osim toga registracijom možete sudjelovati u raznim postojećim temama na forumu, otvarati nove teme, sudjelovati u chatu i još mnogo toga. Ako već imaš otvoren račun, logiraj se ovde ,a ako želiš saznati zašto smo najbolji otvori novi račun i uverite se sami :)
Photo

Murdoch Mysteries (2008)

2008 kanada kriminalisticka

  • Please log in to reply
5 replies to this topic

#1
LEMONZOO

LEMONZOO

    Advanced Member

  • VIP
  • PipPipPip
  • 739 posts
  • 3054 thanks
  • LocationGavran Mahala

Murdoch Mysteries (2008)

murdoch_mysteries.jpg

Please Login or Register to see this Hidden Content

In the 1890s, William Murdoch uses radical forensic techniques for the time, including fingerprinting and trace evidence, to solve some of the city's most gruesome murders.

Murdoch.Mysteries.S07.PROPER.DVDRip.x264-OSiTV

General
Unique ID                   : 192605915055431641263453446492658057152 (0x90E68CC806585C3D8AB3263ECCE3BFC0)
Complete name               : murdoch.mysteries.701.dvdrip.x264-ositv.mkv
Format                      : Matroska
Format version              : Version 2
File size                   : 352 MiB
Duration                    : 44mn 10s
Overall bit rate            : 1 113 Kbps
Encoded date                : UTC 2015-01-23 21:04:46
Writing application         : mkvmerge v7.4.0 ('Circles') 32bit built on Dec 12 2014 12:10:09
Writing library             : libebml v1.3.0 + libmatroska v1.4.1
DURATION                    : 00:44:10.645000000
NUMBER_OF_FRAMES            : 124249
NUMBER_OF_BYTES             : 41677508
_STATISTICS_WRITING_APP     : mkvmerge v7.4.0 ('Circles') 32bit built on Dec 12 2014 12:10:09
_STATISTICS_WRITING_DATE_UT : 2015-01-23 21:04:46
_STATISTICS_TAGS            : BPS DURATION NUMBER_OF_FRAMES NUMBER_OF_BYTES

Video
ID                          : 1
Format                      : AVC
Format/Info                 : Advanced Video Codec
Format profile              : [email protected]
Format settings, CABAC      : Yes
Format settings, ReFrames   : 5 frames
Codec ID                    : V_MPEG4/ISO/AVC
Duration                    : 44mn 10s
Width                       : 720 pixels
Height                      : 406 pixels
Display aspect ratio        : 16:9
Frame rate mode             : Constant
Frame rate                  : 23.976 fps
Color space                 : YUV
Chroma subsampling          : 4:2:0
Bit depth                   : 8 bits
Scan type                   : Progressive
Writing library             : x264 core 144 r2525 40bb568
Encoding settings           : cabac=1 / ref=5 / deblock=1:2:1 / analyse=0x3:0x113 / me=umh / subme=8 / psy=1 / psy_rd=0.75:0.00 / mixed_ref=1 / me_range=16 / chroma_me=1 / trellis=1 / 8x8dct=1 / cqm=0 / deadzone=21,11 / fast_pskip=1 / chroma_qp_offset=-2 / threads=6 / lookahead_threads=1 / sliced_threads=0 / nr=0 / decimate=1 / interlaced=0 / bluray_compat=0 / constrained_intra=0 / bframes=3 / b_pyramid=2 / b_adapt=2 / b_bias=0 / direct=3 / weightb=1 / open_gop=0 / weightp=2 / keyint=250 / keyint_min=25 / scenecut=40 / intra_refresh=0 / rc_lookahead=50 / rc=crf / mbtree=1 / crf=19.0 / qcomp=0.60 / qpmin=0 / qpmax=69 / qpstep=4 / ip_ratio=1.40 / aq=1:1.00
Default                     : Yes
Forced                      : No

Audio
ID                          : 2
Format                      : AAC
Format/Info                 : Advanced Audio Codec
Format profile              : LC
Codec ID                    : A_AAC
Duration                    : 44mn 10s
Channel(s)                  : 2 channels
Channel positions           : Front: L R
Sampling rate               : 48.0 KHz
Compression mode            : Lossy
Delay relative to video     : 9ms
Default                     : Yes
Forced                      : No


murdoch.mysteries.701cou9d.jpg

murdoch.mysteries.701aguzs.jpg

murdoch.mysteries.70132u64.jpg

murdoch.mysteries.701ciuuz.jpg


Hidden Content
You'll be able to see the hidden content once you thank this post.

Titlovi:

Please Login or Register to see this Hidden Content



Thanked by 4 Members:
sunny01 , ppetricax39 , Baska1972 , Melitta

#2
LEMONZOO

LEMONZOO

    Advanced Member

  • VIP
  • PipPipPip
  • 739 posts
  • 3054 thanks
  • LocationGavran Mahala

Murdoch.Mysteries.S06.HDTV.x264

Release Name----- Murdoch.Mysteries.S06E01.HDTV.x264-2HD
Release Size----- 367.4MB
Play Time-------- 00:43:26.954
Resolution------- 720x404
Frame Rate------- 23.976 fps
Video Bitrate---- 1050Kbps
Video Codec------ x264
Audio ----------- 128Kbps
Audio Codec------ AAC

murdoch.mysteries.s0605u1g.jpg

murdoch.mysteries.s06veulz.jpg

murdoch.mysteries.s06wouo5.jpg

murdoch.mysteries.s06gqu55.jpg

Hidden Content
You'll be able to see the hidden content once you thank this post.

Titlovi:

Please Login or Register to see this Hidden Content



Thanked by 2 Members:
ppetricax39 , Melitta

#3
LEMONZOO

LEMONZOO

    Advanced Member

  • VIP
  • PipPipPip
  • 739 posts
  • 3054 thanks
  • LocationGavran Mahala

murdoch.mysteries.s02.dvdrip.xvid-haggis

General
Complete name               : murdoch.mysteries.s02e01.dvdrip.xvid-haggis.avi
Format                      : AVI
Format/Info                 : Audio Video Interleave
File size                   : 348 MiB
Duration                    : 45mn 40s
Overall bit rate mode       : Variable
Overall bit rate            : 1 066 Kbps
Writing application         : VirtualDubMod 1.5.10.2 (build 2540/release)
Writing library             : VirtualDubMod build 2540/release

Video
ID                          : 0
Format                      : MPEG-4 Visual
Format profile              : Advanced [email protected]
Format settings, BVOP       : 2
Format settings, QPel       : No
Format settings, GMC        : No warppoints
Format settings, Matrix     : Default (H.263)
Muxing mode                 : Packed bitstream
Codec ID                    : XVID
Codec ID/Hint               : XviD
Duration                    : 45mn 40s
Bit rate                    : 932 Kbps
Width                       : 624 pixels
Height                      : 352 pixels
Display aspect ratio        : 16:9
Frame rate                  : 25.000 fps
Color space                 : YUV
Chroma subsampling          : 4:2:0
Bit depth                   : 8 bits
Scan type                   : Progressive
Compression mode            : Lossy
Bits/(Pixel*Frame)          : 0.170
Stream size                 : 305 MiB (87%)
Writing library             : XviD 1.2.1 (UTC 2008-12-04)

Audio
ID                          : 1
Format                      : MPEG Audio
Format version              : Version 1
Format profile              : Layer 3
Mode                        : Joint stereo
Mode extension              : MS Stereo
Codec ID                    : 55
Codec ID/Hint               : MP3
Duration                    : 45mn 40s
Bit rate mode               : Variable
Bit rate                    : 121 Kbps
Nominal bit rate            : 128 Kbps
Channel(s)                  : 2 channels
Sampling rate               : 48.0 KHz
Compression mode            : Lossy
Stream size                 : 39.6 MiB (11%)
Alignment                   : Aligned on interleaves
Interleave, duration        : 24 ms (0.60 video frame)
Interleave, preload duratio : 193 ms
Writing library             : LAME3.98r
Encoding settings           : -m j -V 4 -q 2 -lowpass 17 --abr 128

murdoch_mysteries_s02e01_dvdrip_xvid_hag

murdoch_mysteries_s02e01_dvdrip_xvid_hag


murdoch_mysteries_s02e01_dvdrip_xvid_hag

murdoch_mysteries_s02e01_dvdrip_xvid_hag

Hidden Content
You'll be able to see the hidden content once you thank this post.

Titlovi:

Please Login or Register to see this Hidden Content



Thanked by 3 Members:
Zelenac1 , ppetricax39 , Melitta

#4
LEMONZOO

LEMONZOO

    Advanced Member

  • VIP
  • PipPipPip
  • 739 posts
  • 3054 thanks
  • LocationGavran Mahala

murdoch.mysteries.s05.dvdrip.xvid-ositv

General
Complete name               : murdoch.mysteries.501.dvdrip.xvid-ositv.avi
Format                      : AVI
Format/Info                 : Audio Video Interleave
File size                   : 350 MiB
Duration                    : 47mn 40s
Overall bit rate mode       : Variable
Overall bit rate            : 1 027 Kbps
Writing application         : VirtualDubMod 1.5.10.2 (build 2540/release)
Writing library             : VirtualDubMod build 2540/release

Video
ID                          : 0
Format                      : MPEG-4 Visual
Format profile              : Advanced [email protected]
Format settings, BVOP       : 1
Format settings, QPel       : No
Format settings, GMC        : No warppoints
Format settings, Matrix     : Default (H.263)
Codec ID                    : XVID
Codec ID/Hint               : XviD
Duration                    : 47mn 40s
Bit rate                    : 883 Kbps
Width                       : 624 pixels
Height                      : 352 pixels
Display aspect ratio        : 16:9
Frame rate                  : 23.976 fps
Color space                 : YUV
Chroma subsampling          : 4:2:0
Bit depth                   : 8 bits
Scan type                   : Progressive
Compression mode            : Lossy
Bits/(Pixel*Frame)          : 0.168
Stream size                 : 301 MiB (86%)
Writing library             : XviD 1.0.3 (UTC 2004-12-20)

Audio
ID                          : 1
Format                      : MPEG Audio
Format version              : Version 1
Format profile              : Layer 3
Mode                        : Joint stereo
Mode extension              : MS Stereo
Codec ID                    : 55
Codec ID/Hint               : MP3
Duration                    : 47mn 40s
Bit rate mode               : Variable
Bit rate                    : 128 Kbps
Channel(s)                  : 2 channels
Sampling rate               : 48.0 KHz
Compression mode            : Lossy
Stream size                 : 44.8 MiB (13%)
Alignment                   : Aligned on interleaves
Interleave, duration        : 24 ms (0.58 video frame)
Interleave, preload duratio : 295 ms
Writing library             : LAME3.90.
Encoding settings           : -m j -V 4 -q 2 -lowpass 17.6 --abr 128

murdoch_mysteries_501_dvdrip_xvid_ositv_

murdoch_mysteries_501_dvdrip_xvid_ositv_

murdoch_mysteries_501_dvdrip_xvid_ositv_

murdoch_mysteries_501_dvdrip_xvid_ositv_

Hidden Content
You'll be able to see the hidden content once you thank this post.

Titlovi:

Please Login or Register to see this Hidden Content



Thanked by 2 Members:
ppetricax39 , Melitta

#5
LEMONZOO

LEMONZOO

    Advanced Member

  • VIP
  • PipPipPip
  • 739 posts
  • 3054 thanks
  • LocationGavran Mahala

Murdoch.Mysteries.S01.REAL.PROPER.DVDRip.XviD-P0W4DVD

General
Complete name               : Murdoch.Mysteries.S01E01.REAL.PROPER.DVDRip.XviD-P0W4DVD.avi
Format                      : AVI
Format/Info                 : Audio Video Interleave
File size                   : 350 MiB
Duration                    : 45mn 58s
Overall bit rate mode       : Variable
Overall bit rate            : 1 064 Kbps
Writing application         : VirtualDubMod 1.5.10.2 (build 2540/release)
Writing library             : VirtualDubMod build 2540/release

Video
ID                          : 0
Format                      : MPEG-4 Visual
Format profile              : Advanced [email protected]
Format settings, BVOP       : 2
Format settings, QPel       : No
Format settings, GMC        : No warppoints
Format settings, Matrix     : Default (H.263)
Codec ID                    : XVID
Codec ID/Hint               : XviD
Duration                    : 45mn 58s
Bit rate                    : 921 Kbps
Width                       : 640 pixels
Height                      : 352 pixels
Display aspect ratio        : 16:9
Frame rate                  : 25.000 fps
Color space                 : YUV
Chroma subsampling          : 4:2:0
Bit depth                   : 8 bits
Scan type                   : Progressive
Compression mode            : Lossy
Bits/(Pixel*Frame)          : 0.164
Stream size                 : 303 MiB (87%)
Writing library             : XviD 1.2.1 (UTC 2008-12-04)

Audio
ID                          : 1
Format                      : MPEG Audio
Format version              : Version 1
Format profile              : Layer 3
Mode                        : Joint stereo
Mode extension              : MS Stereo
Codec ID                    : 55
Codec ID/Hint               : MP3
Duration                    : 45mn 58s
Bit rate mode               : Variable
Bit rate                    : 128 Kbps
Channel(s)                  : 2 channels
Sampling rate               : 48.0 KHz
Compression mode            : Lossy
Stream size                 : 42.8 MiB (12%)
Alignment                   : Aligned on interleaves
Interleave, duration        : 24 ms (0.60 video frame)
Interleave, preload duratio : 141 ms
Writing library             : LAME3.90.
Encoding settings           : -m j -V 4 -q 2 -lowpass 17.6 --abr 128


murdoch.mysteries.s01wkzzr.jpg

murdoch.mysteries.s01iqafs.jpg

murdoch.mysteries.s01rpx41.jpg

murdoch.mysteries.s01ynzhp.jpg

Hidden Content
You'll be able to see the hidden content once you thank this post.

Titlovi:

Please Login or Register to see this Hidden Content



Thanked by 5 Members:
ekozelj , sunny01 , ppetricax39 , Baska1972 , Melitta

#6
LEMONZOO

LEMONZOO

    Advanced Member

  • VIP
  • PipPipPip
  • 739 posts
  • 3054 thanks
  • LocationGavran Mahala

Murdoch.Mysteries.S03.DVDRip.XviD-OSiTV

General
Complete name               : murdoch.mysteries.301.dvdrip.xvid-ositv.avi
Format                      : AVI
Format/Info                 : Audio Video Interleave
File size                   : 350 MiB
Duration                    : 47mn 33s
Overall bit rate mode       : Variable
Overall bit rate            : 1 029 Kbps
Writing application         : VirtualDubMod 1.5.10.2 (build 2540/release)
Writing library             : VirtualDubMod build 2540/release

Video
ID                          : 0
Format                      : MPEG-4 Visual
Format profile              : Advanced [email protected]
Format settings, BVOP       : 1
Format settings, QPel       : No
Format settings, GMC        : No warppoints
Format settings, Matrix     : Default (H.263)
Codec ID                    : XVID
Codec ID/Hint               : XviD
Duration                    : 47mn 33s
Bit rate                    : 886 Kbps
Width                       : 624 pixels
Height                      : 352 pixels
Display aspect ratio        : 16:9
Frame rate                  : 23.976 fps
Color space                 : YUV
Chroma subsampling          : 4:2:0
Bit depth                   : 8 bits
Scan type                   : Progressive
Compression mode            : Lossy
Bits/(Pixel*Frame)          : 0.168
Stream size                 : 301 MiB (86%)
Writing library             : XviD 1.0.3 (UTC 2004-12-20)

Audio
ID                          : 1
Format                      : MPEG Audio
Format version              : Version 1
Format profile              : Layer 3
Mode                        : Joint stereo
Mode extension              : MS Stereo
Codec ID                    : 55
Codec ID/Hint               : MP3
Duration                    : 47mn 33s
Bit rate mode               : Variable
Bit rate                    : 128 Kbps
Channel(s)                  : 2 channels
Sampling rate               : 48.0 KHz
Compression mode            : Lossy
Stream size                 : 44.3 MiB (13%)
Alignment                   : Aligned on interleaves
Interleave, duration        : 24 ms (0.58 video frame)
Interleave, preload duratio : 144 ms
Writing library             : LAME3.90.
Encoding settings           : -m j -V 4 -q 2 -lowpass 17.6 --abr 128


murdoch.mysteries.301r7j13.jpg

murdoch.mysteries.301uwk7s.jpg

murdoch.mysteries.301ikjqr.jpg

murdoch.mysteries.3019wk3h.jpg

Hidden Content
You'll be able to see the hidden content once you thank this post.

Extras:

Hidden Content
You'll be able to see the hidden content once you thank this post.

Titlovi:

Please Login or Register to see this Hidden Content



Thanked by 3 Members:
ppetricax39 , goranruzicic , Melitta




Also tagged with one or more of these keywords: 2008, kanada, kriminalisticka

0 user(s) are reading this topic

0 members, 0 guests, 0 anonymous users