Jump to content

Dobrodošli na Balkandownload.org
Tražite domaće knjige, exyu magazine, sinhronizirane crtane filmove, PC i ostale igre, strane i domaće filmove, dokumentarce, stranu i domaću muziku, itd. ? Ne morate tražiti dalje jer sve ćete to naći kod nas, uredno postavljeno i spremno za download. Osim toga registracijom možete sudjelovati u raznim postojećim temama na forumu, otvarati nove teme, sudjelovati u chatu i još mnogo toga. Ako već imaš otvoren račun, logiraj se ovde ,a ako želiš saznati zašto smo najbolji otvori novi račun i uverite se sami :)
Photo

Time Travelers (1976)

1976 sad znanstvena fantastika

  • Please log in to reply
No replies to this topic

#1
LEMONZOO

LEMONZOO

    Advanced Member

  • VIP
  • PipPipPip
  • 739 posts
  • 3116 thanks
  • LocationGavran Mahala

Time Travelers (1976)

iGxdfRw.jpg

Please Login or Register to see this Hidden Content

In 1976, there's an outbreak of a disease that no one has seen before. All what they know is that rsembles a disease that existed at around 1871, and that a Dr. Henderson was able to save most of his patients but the Chicago Fire destroyed his records. Dr. Earnshaw the doctor looking for a cure was approached by a man, Jeffrey Adams, who believes that he could help him. It seems that a Dr. Amos Cummings has prefected the art of time travel, and the plan is for Earnshaw and Adams to go back to 1871 and learn how Henderson cured his patients. But a glitch in the machines computers sends them the day before the fire not four days as intended.

General
Complete name               : Time.Travelers.1976.mp4
Format                      : MPEG-4
Format profile              : Base Media / Version 2
Codec ID                    : mp42
File size                   : 1 003 MiB
Duration                    : 1h 12mn
Overall bit rate mode       : Variable
Overall bit rate            : 1 924 Kbps

Video
ID                          : 1
Format                      : AVC
Format/Info                 : Advanced Video Codec
Format profile              : [email protected]
Format settings, CABAC      : Yes
Format settings, ReFrames   : 4 frames
Codec ID                    : avc1
Codec ID/Info               : Advanced Video Coding
Duration                    : 1h 12mn
Bit rate                    : 1 780 Kbps
Width                       : 706 pixels
Height                      : 480 pixels
Display aspect ratio        : 4:3
Original display aspect rat : 4:3
Frame rate mode             : Variable
Frame rate                  : 23.976 fps
Minimum frame rate          : 18.884 fps
Maximum frame rate          : 59.920 fps
Color space                 : YUV
Chroma subsampling          : 4:2:0
Bit depth                   : 8 bits
Scan type                   : Progressive
Bits/(Pixel*Frame)          : 0.219
Stream size                 : 928 MiB (93%)
Writing library             : x264 core 130 r2273 b3065e6
Encoding settings           : cabac=1 / ref=4 / deblock=1:0:0 / analyse=0x1:0x111 / me=hex / subme=2 / psy=1 / psy_rd=1.00:0.00 / mixed_ref=1 / me_range=16 / chroma_me=1 / trellis=0 / 8x8dct=0 / cqm=0 / deadzone=21,11 / fast_pskip=1 / chroma_qp_offset=0 / threads=6 / lookahead_threads=2 / sliced_threads=0 / nr=0 / decimate=1 / interlaced=0 / bluray_compat=0 / constrained_intra=0 / bframes=2 / b_pyramid=2 / b_adapt=1 / b_bias=0 / direct=1 / weightb=1 / open_gop=0 / weightp=1 / keyint=240 / keyint_min=24 / scenecut=40 / intra_refresh=0 / rc_lookahead=10 / rc=2pass / mbtree=1 / bitrate=1780 / ratetol=1.0 / qcomp=0.60 / qpmin=0 / qpmax=69 / qpstep=4 / cplxblur=20.0 / qblur=0.5 / ip_ratio=1.40 / aq=1:1.00
Encoded date                : UTC 2014-05-31 18:26:53
Tagged date                 : UTC 2014-05-31 18:50:39
Color primaries             : BT.601 NTSC
Transfer characteristics    : BT.709
Matrix coefficients         : BT.601
Color range                 : Limited

Audio
ID                          : 2
Format                      : AAC
Format/Info                 : Advanced Audio Codec
Format profile              : LC
Codec ID                    : 40
Duration                    : 1h 12mn
Bit rate mode               : Variable
Bit rate                    : 128 Kbps
Maximum bit rate            : 269 Kbps
Channel(s)                  : 2 channels
Channel positions           : Front: L R
Sampling rate               : 48.0 KHz
Compression mode            : Lossy
Stream size                 : 66.7 MiB (7%)
Title                       : Stereo
Language                    : English
Encoded date                : UTC 2014-05-31 18:26:53
Tagged date                 : UTC 2014-05-31 18:50:38

Text
ID                          : 3
Format                      : mp4s
Codec ID                    : E0
Duration                    : 1h 12mn
Bit rate mode               : Variable
Bit rate                    : 3 556 bps
Maximum bit rate            : 4 168 Mbps
Stream size                 : 1.83 MiB (0%)
Language                    : English
Encoded date                : UTC 2014-05-31 18:26:53
Tagged date                 : UTC 2014-05-31 18:50:34

Menu
ID                          : 6
Codec ID                    : text
Encoded date                : UTC 2014-05-31 19:01:11
Tagged date                 : UTC 2014-05-31 19:01:11


time.travelers.1976.mpauyj.jpg

time.travelers.1976.mi7u65.jpg

time.travelers.1976.mg7uaq.jpg

time.travelers.1976.mu2uq6.jpg

Hidden Content
You'll be able to see the hidden content once you thank this post.

Credits to Magnito @ tehparadox.com







Also tagged with one or more of these keywords: 1976, sad, znanstvena fantastika

0 user(s) are reading this topic

0 members, 0 guests, 0 anonymous users