Jump to content

Dobrodošli na Balkandownload.org
Tražite domaće knjige, exyu magazine, sinhronizirane crtane filmove, PC i ostale igre, strane i domaće filmove, dokumentarce, stranu i domaću muziku, itd. ? Ne morate tražiti dalje jer sve ćete to naći kod nas, uredno postavljeno i spremno za download. Osim toga registracijom možete sudjelovati u raznim postojećim temama na forumu, otvarati nove teme, sudjelovati u chatu i još mnogo toga. Ako već imaš otvoren račun, logiraj se ovde ,a ako želiš saznati zašto smo najbolji otvori novi račun i uverite se sami :)
Photo

Never Forget (1991)

1991 leonard nimoy sad

  • Please log in to reply
No replies to this topic

#1
LEMONZOO

LEMONZOO

    Advanced Member

  • VIP
  • PipPipPip
  • 737 posts
  • 2902 thanks
  • LocationGavran Mahala

Never Forget (1991) TV-VHSRip

3srs1usou8wqta2ooh0dt1au2r.jpg

Please Login or Register to see this Hidden Content

This film tells the story of Mel Mermelstein, a Jewish survivor of the Nazi Holocaust who was angered and horrified at the gall of the Institute for Historical Review, a neo nazi organization dedicated to claiming the Holocaust never happened. Although itching to challenge them, he is initially disuaded by the fact that the organization's standard tactic is to post a reward to anyone who can prove the Holocaust's occurance, then ignore all petitioners and claim that no one has presented any proof, thus ensuring themselves publicity and credibility. That reluctance is removed when a friend notes that this kind of lying represents a breach of contract, leaving the organization open to a lawsuit. Using this bold legal strategy, Mermelstein presents his proof, the IHR takes the bait and Mermelstein takes them to court. Now, Mermelstein must battle the neo nazis not only in court, but outside as well as they try to intimidate him to drop a case that would lead the legal recongition of the ...

General
Complete name               : Never.Forget.1991.mp4
Format                      : MPEG-4
Format profile              : Base Media
Codec ID                    : isom
File size                   : 855 MiB
Duration                    : 1h 29mn
Overall bit rate mode       : Variable
Overall bit rate            : 1 332 Kbps
Encoded date                : UTC 2014-01-06 04:14:55
Tagged date                 : UTC 2014-01-06 04:14:55

Video
ID                          : 1
Format                      : AVC
Format/Info                 : Advanced Video Codec
Format profile              : [email protected]
Format settings, CABAC      : Yes
Format settings, ReFrames   : 3 frames
Codec ID                    : avc1
Codec ID/Info               : Advanced Video Coding
Duration                    : 1h 29mn
Bit rate                    : 1 200 Kbps
Maximum bit rate            : 2 814 Kbps
Width                       : 640 pixels
Height                      : 480 pixels
Display aspect ratio        : 4:3
Frame rate mode             : Constant
Frame rate                  : 25.000 fps
Color space                 : YUV
Chroma subsampling          : 4:2:0
Bit depth                   : 8 bits
Scan type                   : Progressive
Bits/(Pixel*Frame)          : 0.156
Stream size                 : 770 MiB (90%)
Writing library             : x264 core 106 Ubuntu_2:0.106.1741-3
Encoding settings           : cabac=1 / ref=3 / deblock=1:0:0 / analyse=0x3:0x113 / me=hex / subme=7 / psy=1 / psy_rd=1.00:0.00 / mixed_ref=1 / me_range=16 / chroma_me=1 / trellis=1 / 8x8dct=1 / cqm=0 / deadzone=21,11 / fast_pskip=1 / chroma_qp_offset=-2 / threads=6 / sliced_threads=0 / nr=0 / decimate=1 / interlaced=0 / constrained_intra=0 / bframes=3 / b_pyramid=1 / b_adapt=1 / b_bias=0 / direct=1 / weightb=1 / open_gop=0 / weightp=2 / keyint=250 / keyint_min=25 / scenecut=40 / intra_refresh=0 / rc_lookahead=40 / rc=2pass / mbtree=1 / bitrate=1200 / ratetol=1.0 / qcomp=0.60 / qpmin=10 / qpmax=51 / qpstep=4 / cplxblur=20.0 / qblur=0.5 / ip_ratio=1.40 / aq=1:1.00
Encoded date                : UTC 1970-01-01 00:00:00
Tagged date                 : UTC 2014-01-06 04:16:09

Audio
ID                          : 2
Format                      : AAC
Format/Info                 : Advanced Audio Codec
Format profile              : LC
Codec ID                    : 40
Duration                    : 1h 29mn
Source duration             : 1h 29mn
Bit rate mode               : Variable
Bit rate                    : 128 Kbps
Maximum bit rate            : 157 Kbps
Channel(s)                  : 2 channels
Channel positions           : Front: L R
Sampling rate               : 44.1 KHz
Compression mode            : Lossy
Stream size                 : 82.1 MiB (10%)
Source stream size          : 82.1 MiB (10%)
Encoded date                : UTC 1970-01-01 00:00:00
Tagged date                 : UTC 2014-01-06 04:16:09


never.forget.1991.mp42ypiz.jpg

never.forget.1991.mp4n2p4w.jpg

never.forget.1991.mp4uwqr9.jpg

never.forget.1991.mp4dgraz.jpg

never.forget.1991.mp4krrdq.jpg


Hidden Content
You'll be able to see the hidden content once you thank this post.

Gledljiv rip koji je skinut s VHS-a na koji je netko snimio kad je išlo na TV-u. Postoji i DVDRip, ali nisam uspio naći izvor za skidanje.







Also tagged with one or more of these keywords: 1991, leonard nimoy, sad

0 user(s) are reading this topic

0 members, 0 guests, 0 anonymous users