Jump to content

Dobrodošli na Balkandownload.org
Tražite domaće knjige, exyu magazine, sinhronizirane crtane filmove, PC i ostale igre, strane i domaće filmove, dokumentarce, stranu i domaću muziku, itd. ? Ne morate tražiti dalje jer sve ćete to naći kod nas, uredno postavljeno i spremno za download. Osim toga registracijom možete sudjelovati u raznim postojećim temama na forumu, otvarati nove teme, sudjelovati u chatu i još mnogo toga. Ako već imaš otvoren račun, logiraj se ovde ,a ako želiš saznati zašto smo najbolji otvori novi račun i uverite se sami :)
Photo

Ledina (2003)


3 replies to this topic

#1
Zoran_

Zoran_

    Gold Member

  • VIP
  • PipPipPipPipPipPip
  • 5,988 posts
  • 149569 thanks

Ledina (2003)


Ledina2003.png

imdb6.jpg
 

Please Login or Register to see this Hidden Content

Ledina je višeslojna slika novobeogradskog predgrada smeštena u period izmedu 1995. i 2002. Slika stanja duha i etike. Govori o karakterologiji razlicitih vera i nacionalnosti, o mešovitom braku muzicara i odnosu sredine prema njemu, o detetu koje naj više trpi i nosi breme svog detinjstva.


Molbe za moje linkove, šaljite na PP.

 

Zabranjeno je kopiranje mojih linkova,reupload i postavljanje na druge forume!


Thanked by 43 Members:
Dijana1974 , salgija , Kopa , jovicai , rosicanin , iljeva990 , Hornet_UE , draganadragana2010 , amiga500emulator1 , amres , mikatron , krivosic1804 , miliandjelijater , ss1966 , zagortnt , Brxi , Koyo , papak333 , marek_05 , marzaneti , dražen malović , tonym , gumeni , opetopet , mrmotija , GRT7 , electronicmaestro , jasna011 , igor1906 , mesele , banisha , urs517 , mijailovic , dakle , damirprc , hotalien2105 , APKAH , nightdance , dondjo , Kalidora , IVE , fogo , Korto74

#2
Wolf 13

Wolf 13

    Advanced Member

  • Members
  • PipPipPip
  • 426 posts
  • 33538 thanks
Ledina (2003) DVDrip AC3 5.1 x264 by Wolf
(MKV)
 
qmJ4Jsw.jpg
 

Please Login or Register to see this Hidden Content

 

General
Unique ID                   : 307822512942761493816997547054882905881 (0xE79475A351A5BDF5C4DEF7C36EE85F19)
Complete name               : Ledina (2003) DVDrip AC3 5.1 x264 by Wolf.mkv
Format                      : Matroska
Format version              : Version 4 / Version 2
File size                   : 978 MiB
Duration                    : 1 h 17 min
Overall bit rate            : 1 758 kb/s
Encoded date                : UTC 2018-12-13 12:02:41 / UTC 2018-12-12T16:14:28Z
Writing application         : mkvmerge v29.0.0 ('Like It Or Not') 64-bit
Writing library             : libebml v1.3.6 + libmatroska v1.4.9 / Lavf57.7.2
 
Video
ID                          : 1
Format                      : AVC
Format/Info                 : Advanced Video Codec
Format profile              : [email protected]
Format settings             : CABAC / 8 Ref Frames
Format settings, CABAC      : Yes
Format settings, ReFrames   : 8 frames
Codec ID                    : V_MPEG4/ISO/AVC
Duration                    : 1 h 17 min
Bit rate                    : 1 500 kb/s
Width                       : 688 pixels
Height                      : 450 pixels
Display aspect ratio        : 16:10
Original display aspect rat : 16:10
Frame rate mode             : Constant
Frame rate                  : 25.000 FPS
Color space                 : YUV
Chroma subsampling          : 4:2:0
Bit depth                   : 8 bits
Scan type                   : Progressive
Bits/(Pixel*Frame)          : 0.194
Stream size                 : 816 MiB (83%)
Title                       : Ledina (2003)
Writing library             : x264 core 155 r2901 7d0ff22
Encoding settings           : cabac=1 / ref=8 / deblock=1:-1:-1 / analyse=0x3:0x133 / me=umh / subme=9 / psy=1 / psy_rd=1.00:0.15 / mixed_ref=1 / me_range=16 / chroma_me=1 / trellis=2 / 8x8dct=1 / cqm=0 / deadzone=21,11 / fast_pskip=1 / chroma_qp_offset=-3 / threads=6 / lookahead_threads=1 / sliced_threads=0 / nr=0 / decimate=1 / interlaced=0 / bluray_compat=0 / constrained_intra=0 / bframes=3 / b_pyramid=2 / b_adapt=2 / b_bias=0 / direct=3 / weightb=1 / open_gop=0 / weightp=2 / keyint=250 / keyint_min=25 / scenecut=40 / intra_refresh=0 / rc_lookahead=60 / rc=2pass / mbtree=1 / bitrate=1500 / ratetol=1.0 / qcomp=0.60 / qpmin=0 / qpmax=69 / qpstep=4 / cplxblur=20.0 / qblur=0.5 / vbv_maxrate=300000 / vbv_bufsize=300000 / nal_hrd=none / filler=0 / ip_ratio=1.40 / aq=1:1.00
Language                    : Serbian
Default                     : Yes
Forced                      : No
Color range                 : Limited
Color primaries             : BT.601 PAL
Transfer characteristics    : BT.709
Matrix coefficients         : BT.601
Statistics Tags Issue       : mkvmerge v29.0.0 ('Like It Or Not') 64-bit 2018-12-13 12:02:41 / mkvmerge v29.0.0 ('Like It Or Not') 64-bit 2018-12-13 12:02:41 / UTC 2018-12-12T16:14:28Z
FromStats_BitRate           : 1500026
FromStats_Duration          : 01:17:46.960000000
FromStats_FrameCount        : 116674
FromStats_StreamSize        : 875070255
 
Audio
ID                          : 2
Format                      : AC-3
Format/Info                 : Audio Coding 3
Codec ID                    : A_AC3
Duration                    : 1 h 17 min
Bit rate mode               : Constant
Bit rate                    : 256 kb/s
Channel(s)                  : 6 channels
Channel positions           : Front: L C R, Side: L R, LFE
Sampling rate               : 48.0 kHz
Frame rate                  : 31.250 FPS (1536 SPF)
Bit depth                   : 16 bits
Compression mode            : Lossy
Stream size                 : 142 MiB (15%)
Title                       : Ledina (2003)
Language                    : Serbian
Service kind                : Complete Main
Default                     : Yes
Forced                      : No
Statistics Tags Issue       : mkvmerge v29.0.0 ('Like It Or Not') 64-bit 2018-12-13 12:02:41 / mkvmerge v29.0.0 ('Like It Or Not') 64-bit 2018-12-13 12:02:41 / UTC 2018-12-12T16:14:28Z
FromStats_BitRate           : 256000
FromStats_Duration          : 01:17:46.944000000
FromStats_FrameCount        : 145842
FromStats_StreamSize        : 149342208
 
epYscVA.png
Hidden Content
You'll be able to see the hidden content once you thank this post.
 
3gchNgl.png
RE4DYzA.jpg

Edited by Wolf 13, 13 December 2018 - 17:01.


Thanked by 53 Members:
bosnaBosnia , 303808909 , Dijana1974 , qurbanize , driker , chefko , tiho14 , rafael13 , zljaka , Mup112 , kockari , icaleptir , 011gogo , fffunkymannn , Bratija22 , Kopa , Urosito , vajtaun , iljeva990 , Gagisha , DenisBan , amiga500emulator1 , brankoz13 , vristic , Tajson , ss1966 , zagortnt , Brxi , deniszn , papak333 , marek_05 , asceric , Alenbeg , marzaneti , grof65 , bumbo0123 , dražen malović , burence , denimiko1 , tonym , gumeni , lalemile , opetopet , Zelenac1 , robertp , PEKIPEKICA , raskolnikov , plavi59 , GRT7 , bratobulje , lika , jasna011 , mesele

#3
nikolakralj100

nikolakralj100

    Advanced Member

  • Members
  • PipPipPip
  • 346 posts
  • 20574 thanks

DVDr

 

OGmttH0.jpg

 

NClrx1v.jpg

 

 

Hidden Content
You'll be able to see the hidden content once you thank this post.


Thanked by 21 Members:
acika94 , 303808909 , Dijana1974 , rafael13 , fritz200300 , salgija , Miki_Kiki_Riki , liquid , Kopa , Urosito , nixonns , vajtaun , Mad2Max , Usualman , draganadragana2010 , amiga500emulator1 , kprekrat , harissel , grof65 , Zelenac1 , woodooye

#4
Zoran_

Zoran_

    Gold Member

  • VIP
  • PipPipPipPipPipPip
  • 5,988 posts
  • 149569 thanks
Ledina (2003)
 
 
jGe0SWf.png
 
Su6Ksi6.jpg
 

Please Login or Register to see this Hidden Content

 
Ledina je višeslojna slika novobeogradskog predgrada smeštena u period izmedu 1995. i 2002. Slika stanja duha i etike. Govori o karakterologiji razlicitih vera i nacionalnosti, o mešovitom braku muzicara i odnosu sredine prema njemu, o detetu koje naj više trpi i nosi breme svog detinjstva.
 
z7yx28vmk4z.png
 
 
eh5wdpg.jpg
 
Oets6ur.gif
 
Ledina (2003) DVDRip.x264.mkv
 
SFYUbuP.jpg
 

Hidden Content
You'll be able to see the hidden content once you thank this post.

 

Molbe za moje linkove, šaljite na PP.

 

Zabranjeno je kopiranje mojih linkova,reupload i postavljanje na druge forume!


Thanked by 30 Members:
Jorgos , goransokolovic.fr , 303808909 , mciplic , james12320 , driker , ss_semi , bosnaBosnia , kanki , nocaronion , kockari , crazymina89 , satserb , todor72 , dragan13 , MP22 , Milfir , Zelenac1 , salgija , aca72 , gigo2 , cigoyner , Milan1959 , Franci , icaleptir , zoran48 , 011gogo , Miki_Kiki_Riki , Jokso , BobbyPeruAd



0 user(s) are reading this topic

0 members, 0 guests, 0 anonymous users