Jump to content

Dobrodošli na Balkandownload.org
Tražite domaće knjige, exyu magazine, sinhronizirane crtane filmove, PC i ostale igre, strane i domaće filmove, dokumentarce, stranu i domaću muziku, itd. ? Ne morate tražiti dalje jer sve ćete to naći kod nas, uredno postavljeno i spremno za download. Osim toga registracijom možete sudjelovati u raznim postojećim temama na forumu, otvarati nove teme, sudjelovati u chatu i još mnogo toga. Ako već imaš otvoren račun, logiraj se ovde ,a ako želiš saznati zašto smo najbolji otvori novi račun i uverite se sami :)
Photo

Red Ryder (1951)

1951 vestern sad

  • Please log in to reply
No replies to this topic

#1
LEMONZOO

LEMONZOO

    Advanced Member

  • VIP
  • PipPipPip
  • 739 posts
  • 3067 thanks
  • LocationGavran Mahala

Red Ryder (1951)

redryder1x0guntroubleh4uqh.jpg

Please Login or Register to see this Hidden Content

Red Ryder 1x00 Gun Trouble Valley (1956)

General
Unique ID                   : Red Ryder 1x0 Gun Trouble Valley.mkv
Format                      : Matroska
Format version              : Version 1
File size                   : 365 MiB
Duration                    : 25mn 57s
Overall bit rate            : 1 964 Kbps
Encoded date                : UTC 2013-09-20 11:18:54
Writing application         : AVSMatroskaFile
Writing library             : libebml v0.7.7 + libmatroska v0.8.1

Video
ID                          : 1
Format                      : AVC
Format/Info                 : Advanced Video Codec
Format profile              : [email protected]
Format settings, CABAC      : Yes
Format settings, ReFrames   : 1 frame
Codec ID                    : V_MPEG4/ISO/AVC
Duration                    : 25mn 57s
Bit rate                    : 1 669 Kbps
Width                       : 720 pixels
Height                      : 540 pixels
Display aspect ratio        : 4:3
Frame rate mode             : Constant
Frame rate                  : 29.970 fps
Color space                 : YUV
Chroma subsampling          : 4:2:0
Bit depth                   : 8 bits
Scan type                   : Progressive
Bits/(Pixel*Frame)          : 0.143
Stream size                 : 310 MiB (85%)
Default                     : Yes
Forced                      : No

Audio
ID                          : 2
Format                      : MPEG Audio
Format version              : Version 1
Format profile              : Layer 3
Codec ID                    : A_MPEG/L3
Codec ID/Hint               : MP3
Duration                    : 25mn 57s
Bit rate mode               : Constant
Bit rate                    : 256 Kbps
Channel(s)                  : 2 channels
Sampling rate               : 48.0 KHz
Compression mode            : Lossy
Stream size                 : 47.5 MiB (13%)
Writing library             : LAMELAME
Default                     : Yes
Forced                      : No

redryder1x0guntroubleqauck.jpg

redryder1x0guntroublemlue0.jpg

redryder1x0guntroubleqyuks.jpg

Hidden Content
You'll be able to see the hidden content once you thank this post.


Thanked by 1 Member:
titxx




Also tagged with one or more of these keywords: 1951, vestern, sad

0 user(s) are reading this topic

0 members, 0 guests, 0 anonymous users