Jump to content

Dobrodošli na Balkandownload.org
Tražite domaće knjige, exyu magazine, sinhronizirane crtane filmove, PC i ostale igre, strane i domaće filmove, dokumentarce, stranu i domaću muziku, itd. ? Ne morate tražiti dalje jer sve ćete to naći kod nas, uredno postavljeno i spremno za download. Osim toga registracijom možete sudjelovati u raznim postojećim temama na forumu, otvarati nove teme, sudjelovati u chatu i još mnogo toga. Ako već imaš otvoren račun, logiraj se ovde ,a ako želiš saznati zašto smo najbolji otvori novi račun i uverite se sami :)
Photo

Hawaii Five-O (1968)

1968 sad havaji procedural

  • Please log in to reply
No replies to this topic

#1
LEMONZOO

LEMONZOO

    Advanced Member

  • VIP
  • PipPipPip
  • 739 posts
  • 3117 thanks
  • LocationGavran Mahala

Hawaii Five-O (1968)

hawaii_five-o_1968bkkgd.jpg

Please Login or Register to see this Hidden Content

Five-0 was a special state police unit answering only to the Governor of Hawaii. It worked with Honolulu police to fight the underworld in the island state. Sooner or later virtually all the bad guys heard Steve McGarrett grunt "Book 'em, Danno!" though chief bad guy Wo Fat was caught after MacArthur left the series.

Hawaii.Five-0.S01.Face.of.the.Dragon.DVDRip.XviD-DIMENSION

General
Complete name               : Hawaii.Five-0.S01E02.Full.Fathom.Five.DVDRip.XviD-DIMENSION.avi
Format                      : AVI
Format/Info                 : Audio Video Interleave
File size                   : 351 MiB
Duration                    : 51mn 13s
Overall bit rate mode       : Variable
Overall bit rate            : 958 Kbps
Writing application         : Nandub v1.0rc2
Writing library             : Nandub build 1853/release

Video
ID                          : 0
Format                      : MPEG-4 Visual
Format profile              : Advanced [email protected]
Format settings, BVOP       : 2
Format settings, QPel       : No
Format settings, GMC        : No warppoints
Format settings, Matrix     : Default (MPEG)
Codec ID                    : XVID
Codec ID/Hint               : XviD
Duration                    : 51mn 13s
Bit rate                    : 861 Kbps
Width                       : 512 pixels
Height                      : 384 pixels
Display aspect ratio        : 4:3
Frame rate                  : 23.976 fps
Color space                 : YUV
Chroma subsampling          : 4:2:0
Bit depth                   : 8 bits
Scan type                   : Progressive
Compression mode            : Lossy
Bits/(Pixel*Frame)          : 0.183
Stream size                 : 316 MiB (90%)
Writing library             : XviD 1.1.0 Beta2 (UTC 2005-04-04)

Audio
ID                          : 1
Format                      : MPEG Audio
Format version              : Version 1
Format profile              : Layer 3
Codec ID                    : 55
Codec ID/Hint               : MP3
Duration                    : 51mn 13s
Bit rate mode               : Variable
Bit rate                    : 83.7 Kbps
Minimum bit rate            : 48.0 Kbps
Channel(s)                  : 1 channel
Sampling rate               : 48.0 KHz
Compression mode            : Lossy
Stream size                 : 30.7 MiB (9%)
Alignment                   : Aligned on interleaves
Interleave, duration        : 24 ms (0.58 video frame)
Interleave, preload duratio : 211 ms
Writing library             : LAME3.95
Encoding settings           : -m m -V 4 -q 2 -lowpass 18 --vbr-old -b 48

hawaii.five-0.s01e02.imj63.jpg

hawaii.five-0.s01e02.kxkzh.jpg

hawaii.five-0.s01e02.xxkaw.jpg

hawaii.five-0.s01e02.s3jbr.jpg

Hidden Content
You'll be able to see the hidden content once you thank this post.

Titlovi:

Please Login or Register to see this Hidden Content



Thanked by 1 Member:
milanzivic




Also tagged with one or more of these keywords: 1968, sad, havaji, procedural

0 user(s) are reading this topic

0 members, 0 guests, 0 anonymous users