Jump to content

Dobrodošli na Balkandownload.org
Tražite domaće knjige, exyu magazine, sinhronizirane crtane filmove, PC i ostale igre, strane i domaće filmove, dokumentarce, stranu i domaću muziku, itd. ? Ne morate tražiti dalje jer sve ćete to naći kod nas, uredno postavljeno i spremno za download. Osim toga registracijom možete sudjelovati u raznim postojećim temama na forumu, otvarati nove teme, sudjelovati u chatu i još mnogo toga. Ako već imaš otvoren račun, logiraj se ovde ,a ako želiš saznati zašto smo najbolji otvori novi račun i uverite se sami :)
Photo

Strange Invaders (1983)

1983 horor sad

  • Please log in to reply
No replies to this topic

#1
LEMONZOO

LEMONZOO

    Advanced Member

  • VIP
  • PipPipPip
  • 739 posts
  • 2988 thanks
  • LocationGavran Mahala

Strange Invaders (1983)

strange_invadersliu1n.jpg

Please Login or Register to see this Hidden Content

Charlie's ex-wife disappears, and he travels to where she grew up--a rural town in the Midwest--to look for her. But, surprisingly, nobody knows about her or any of her many relatives, the Newmans. He meets aliens; but when he contacts the FBI, they don't believe him. He tells his story to a tabloid; and suddenly, he is chased by the aliens.

General
Complete name               : Strange Invaders (1983).avi
Format                      : AVI
Format/Info                 : Audio Video Interleave
File size                   : 996 MiB
Duration                    : 1h 33mn
Overall bit rate mode       : Variable
Overall bit rate            : 1 494 Kbps
Writing application         : VirtualDubMod 1.5.4.1 (build 2178/release)
Writing library             : VirtualDubMod build 2178/release

Video
ID                          : 0
Format                      : MPEG-4 Visual
Format profile              : Advanced [email protected]
Format settings, BVOP       : No
Format settings, QPel       : No
Format settings, GMC        : No warppoints
Format settings, Matrix     : Custom
Codec ID                    : XVID
Codec ID/Hint               : XviD
Duration                    : 1h 33mn
Bit rate                    : 1 377 Kbps
Width                       : 640 pixels
Height                      : 288 pixels
Display aspect ratio        : 2.222
Frame rate                  : 23.976 fps
Color space                 : YUV
Chroma subsampling          : 4:2:0
Bit depth                   : 8 bits
Scan type                   : Progressive
Compression mode            : Lossy
Bits/(Pixel*Frame)          : 0.312
Stream size                 : 918 MiB (92%)
Writing library             : XviD 1.2.1 (UTC 2008-12-04)

Audio
ID                          : 1
Format                      : MPEG Audio
Format version              : Version 1
Format profile              : Layer 3
Mode                        : Joint stereo
Mode extension              : MS Stereo
Codec ID                    : 55
Codec ID/Hint               : MP3
Duration                    : 1h 33mn
Bit rate mode               : Variable
Bit rate                    : 104 Kbps
Nominal bit rate            : 128 Kbps
Channel(s)                  : 2 channels
Sampling rate               : 48.0 KHz
Compression mode            : Lossy
Stream size                 : 69.5 MiB (7%)
Alignment                   : Aligned on interleaves
Interleave, duration        : 24 ms (0.58 video frame)
Interleave, preload duratio : 176 ms
Writing library             : LAME3.97
Encoding settings           : -m j -V 4 -q 2 -lowpass 17 --abr 128
Language                    : English


strangeinvaders1983.axtuyo.jpg

strangeinvaders1983.a33us0.jpg

strangeinvaders1983.adcu99.jpg

strangeinvaders1983.aamuf4.jpg

Hidden Content
You'll be able to see the hidden content once you thank this post.






Also tagged with one or more of these keywords: 1983, horor, sad

0 user(s) are reading this topic

0 members, 0 guests, 0 anonymous users