Jump to content

Dobrodošli na Balkandownload.org
Tražite domaće knjige, exyu magazine, sinhronizirane crtane filmove, PC i ostale igre, strane i domaće filmove, dokumentarce, stranu i domaću muziku, itd. ? Ne morate tražiti dalje jer sve ćete to naći kod nas, uredno postavljeno i spremno za download. Osim toga registracijom možete sudjelovati u raznim postojećim temama na forumu, otvarati nove teme, sudjelovati u chatu i još mnogo toga. Ako već imaš otvoren račun, logiraj se ovde ,a ako želiš saznati zašto smo najbolji otvori novi račun i uverite se sami :)
Photo

Klopka (2007)


  • Please log in to reply
2 replies to this topic

#1
MaliGrizeBeton

MaliGrizeBeton

    Silver Member

  • Members
  • PipPipPipPipPip
  • 2,524 posts
  • 3927 thanks

Klopka (2007)

 
klopka000.png
 
Mladen i Marija su srecan, obican beogradski mladi bracni par. Podstanari su, kao i mnogi drugi. Radost nalaze u desetogodisnjem sinu Nemanji. Marija je nastavnica u skoli, a Mladen gradjevinski inzenjer u drzavnoj gradjevinskoj firmi. Veruju da ce bolji dani uskoro nastupiti... Njihov svet se rusi kada, posle iznenadnog srcanog napada, otkriju da Nemanja ima retku bolest.
Operacija u stranom medicinskom centru je neophodna. Lekarska intervencija i put kostaju 30.000 evra. Taj novac moraju da pronadju veoma brzo, jer svaki sledeci Nemanjin napad moze biti sve opasniji. 'Klopka' je film o coveku koji je prinudjen da bira izmedju zivota i smrti sopstvenog deteta. Prica o moralnoj dilemi glavnog junaka – da li spasiti zivot svoga sina tako sto ces postati ubica. O coveku koji menja smrt za zivot, svoju nesrecu za tudju. O dogadjaju koji njegovoj porodici donosi spas, a nekoj drugoj bol i pustos. O mogucnosti izbora, koja zapravo i ne postoji... 'Klopka' je film ispovest. Savremena balkanska verzija 'Zlocina i kazne'. O zlocinu koji je spasao zivot detetu glavnog junaka i iskupljenju koje dolazi iznutra, iz nemogucnosti da se zivi sa sopstvenim zlocinom. 'Klopka' je psiholoska drama, sa elementima trilera, realistican, tvrd i sirov film. Film dugih tisina, nemih i praznih, koje bi trebalo da odslikavaju usamljenost i bespomocnost glavnog junaka ...

 

 

Please Login or Register to see this Hidden Content

 

Please Login or Register to see this Hidden Content

 

 
Upload domacih filmova posvecen jednom od najvecih uplaodera domacih filmova Lape Vecna ti slava druze.


Thanked by 6 Members:
mrmotcina , MedaMSrbija , miliandjelijater , nightdance , bleach1977 , alkoholicar

#2
LEMONZOO

LEMONZOO

    Advanced Member

  • VIP
  • PipPipPip
  • 739 posts
  • 3054 thanks
  • LocationGavran Mahala

Klopka.(aka.The.Trap).(2007).DVDRip.AC3.x264-MandR

klopkaiux8a.jpg

Please Login or Register to see this Hidden Content

"THE TRAP" is a modern film noir reflecting the true face of Serbian (Eastern European) 'society in transition.' It's a story that could happen to you. It is a film about an ordinary man, who is forced to choose between life and death of his own child. THE TRAP is a film about post-Milosevic's Serbia, in which there is no more war, but there is moral and existential desert, about Serbia in transition, in which human life still doesn't worth a lot, about normal life which still seems unreachable.

General
Unique ID                   : 239343862971717881953110661228497571225 (0xB40FF3867289842D808E4033BBE58D99)
Complete name               : Klopka.(aka.The.Trap).(2007).DVDRip.AC3.x264-MandR.mkv
Format                      : Matroska
Format version              : Version 4 / Version 2
File size                   : 1.46 GiB
Duration                    : 1h 42mn
Overall bit rate            : 2 034 Kbps
Encoded date                : UTC 2013-04-03 00:44:48
Writing application         : mkvmerge v6.1.0 ('Old Devil') built on Mar  2 2013 14:32:37
Writing library             : libebml v1.3.0 + libmatroska v1.4.0

Video
ID                          : 1
Format                      : AVC
Format/Info                 : Advanced Video Codec
Format profile              : [email protected]
Format settings, CABAC      : Yes
Format settings, ReFrames   : 16 frames
Codec ID                    : V_MPEG4/ISO/AVC
Duration                    : 1h 42mn
Bit rate                    : 1 839 Kbps
Width                       : 716 pixels
Height                      : 464 pixels
Display aspect ratio        : 1.85:1
Original display aspect rat : 1.85:1
Frame rate mode             : Constant
Frame rate                  : 23.976 fps
Color space                 : YUV
Chroma subsampling          : 4:2:0
Bit depth                   : 8 bits
Scan type                   : Progressive
Bits/(Pixel*Frame)          : 0.231
Stream size                 : 1.29 GiB (89%)
Title                       : Klopka.(aka.The.Trap).(2007).DVDRip.AC3.x264-MandR
Writing library             : x264 core 130 r2273 b3065e6
Encoding settings           : cabac=1 / ref=16 / deblock=1:-3:-3 / analyse=0x3:0x133 / me=umh / subme=11 / psy=1 / psy_rd=1.20:0.15 / mixed_ref=1 / me_range=24 / chroma_me=1 / trellis=2 / 8x8dct=1 / cqm=0 / deadzone=21,11 / fast_pskip=0 / chroma_qp_offset=-3 / threads=9 / lookahead_threads=2 / sliced_threads=0 / nr=0 / decimate=0 / interlaced=0 / bluray_compat=0 / constrained_intra=0 / bframes=10 / b_pyramid=2 / b_adapt=2 / b_bias=0 / direct=3 / weightb=1 / open_gop=0 / weightp=2 / keyint=240 / keyint_min=23 / scenecut=40 / intra_refresh=0 / rc_lookahead=60 / rc=2pass / mbtree=1 / bitrate=1839 / ratetol=1.0 / qcomp=0.70 / qpmin=0 / qpmax=69 / qpstep=4 / cplxblur=20.0 / qblur=0.5 / vbv_maxrate=38000 / vbv_bufsize=30000 / nal_hrd=none / ip_ratio=1.40 / aq=1:0.80
Language                    : English
Default                     : Yes
Forced                      : No

Audio
ID                          : 2
Format                      : AC-3
Format/Info                 : Audio Coding 3
Mode extension              : CM (complete main)
Format settings, Endianness : Big
Codec ID                    : A_AC3
Duration                    : 1h 42mn
Bit rate mode               : Constant
Bit rate                    : 192 Kbps
Channel(s)                  : 2 channels
Channel positions           : Front: L R
Sampling rate               : 48.0 KHz
Bit depth                   : 16 bits
Compression mode            : Lossy
Stream size                 : 141 MiB (9%)
Title                       : 192 kbps @ 2 chnls
Language                    : Serbian
Default                     : Yes
Forced                      : No

Text #1
ID                          : 3
Format                      : VobSub
Muxing mode                 : zlib
Codec ID                    : S_VOBSUB
Codec ID/Info               : The same subtitle format used on DVDs
Language                    : English
Default                     : Yes
Forced                      : No

Text #2
ID                          : 4
Format                      : UTF-8
Codec ID                    : S_TEXT/UTF8
Codec ID/Info               : UTF-8 Plain Text
Language                    : Turkish
Default                     : No
Forced                      : No

klopka.aka.the.trap.24zry0.jpg

klopka.aka.the.trap.26arq3.jpg

klopka.aka.the.trap.2tjrg2.jpg

klopka.aka.the.trap.26gpk3.jpg

Hidden Content
You'll be able to see the hidden content once you thank this post.


Thanked by 8 Members:
bax1977 , lonac , vokman , mrmotcina , MedaMSrbija , gilic , alkoholicar , djigorm

#3
Zoran_

Zoran_

    Silver Member

  • VIP
  • PipPipPipPipPip
  • 2,943 posts
  • 13822 thanks

Klopka (2007)


Klopka2007.png

imdb6.jpg

Please Login or Register to see this Hidden Content


Mladen i Marija su srecan, obican beogradski mladi bracni par. Podstanari su, kao i mnogi drugi. Radost nalaze u desetogodisnjem sinu Nemanji. Marija je nastavnica u skoli, a Mladen gradjevinski inzenjer u drzavnoj gradjevinskoj firmi. Veruju da ce bolji dani uskoro nastupiti… Njihov svet se rusi kada, posle iznenadnog srcanog napada, otkriju da Nemanja ima retku bolest. Operacija u stranom medicinskom centru je neophodna. Lekarska intervencija i put kostaju 30.000 evra. Taj novac moraju da pronadu veoma brzo, jer svaki sledeci Nemanjin napad moze biti sve opasniji. Otkrivaju da je to suma novca koju ne mogu da sakupe. Banke odbijaju da im daju zajam, a prijatelji nemaju dovoljno. Mladen i Marija daju oglas u novinama, trazeci novcanu pomoc za operaciju. Posle nekoliko nedelja razocaranja, jer novca na racunu nema - misteriozni covek se javlja na oglas. On Mladenu daje suludu ponudu - dace mu ceo iznos, ali zauzvrat Mladen mora da ubije izvesnog biznismena kriminalnog profila...

Video: Xvid 720x400 29.97fps 855kbps
Audio: MP3 48000Hz stereo 110kbps


Klopka2007.avi.gif

Klopka2007.avi.jpg

downloade0cdd.gif

Klopka (2007) DVDRip avi

filesflesh2.jpg

Hidden Content
You'll be able to see the hidden content once you thank this post.

Molbe za moje linkove, šaljite na PP.


Zabranjeno je kopiranje mojih linkova,reupload i postavljanje na druge forume!


Thanked by 12 Members:
bax1977 , lonac , vokman , mrmotcina , MedaMSrbija , zoro232 , stefanovicmilan , Krekushka , volimfilm007 , MarkoM9 , milan7656 , alkoholicar



0 user(s) are reading this topic

0 members, 0 guests, 0 anonymous users