Jump to content

Dobrodošli na Balkandownload.org
Tražite domaće knjige, exyu magazine, sinhronizirane crtane filmove, PC i ostale igre, strane i domaće filmove, dokumentarce, stranu i domaću muziku, itd. ? Ne morate tražiti dalje jer sve ćete to naći kod nas, uredno postavljeno i spremno za download. Osim toga registracijom možete sudjelovati u raznim postojećim temama na forumu, otvarati nove teme, sudjelovati u chatu i još mnogo toga. Ako već imaš otvoren račun, logiraj se ovde ,a ako želiš saznati zašto smo najbolji otvori novi račun i uverite se sami :)
Photo

Mystery Woman: Sing Me a Murder (2005)

2005 misterija sad hallmark

  • Please log in to reply
No replies to this topic

#1
LEMONZOO

LEMONZOO

    Advanced Member

  • VIP
  • PipPipPip
  • 739 posts
  • 3117 thanks
  • LocationGavran Mahala

Mystery Woman: Sing Me a Murder (2005)

mw2005.jpg

Please Login or Register to see this Hidden Content

Murder is something to sing about when Mystery Woman Samantha Kinsey-an expert in pulp fiction, and increasingly proficient when it comes to real-life crime-untangles a record-breaking murder. Mystery Woman bookshop owner, Samantha Kinsey, has offered to host a charity concert for a once-famous folk-rock trio out to recapture their old fame flame. But sweet success hits the ultimate sour note when the band's promoter is found murdered in his hotel room. Sam and her partner in crime, Philby, investigate, digging up deadly secrets of private indiscretions, professional greed, and personal vengeance that put a twisted spin on fame and fortune-and bring a whole new meaning to a Top Ten hit.

General
Complete name               : MYSTERY WOMAN SING ME A MURDER.DVDRip.avi
Format                      : AVI
Format/Info                 : Audio Video Interleave
File size                   : 796 MiB
Duration                    : 1h 27mn
Overall bit rate            : 1 277 Kbps
Movie name                  : MYSTERY WOMAN SING ME A MURDER.Title1.DVDRip
Director                    : Jack Mitchell
Writing application         : Lavf51.19.0
Original source form/Name   : MYSTERY WOMAN SING ME A MURDER

Video
ID                          : 0
Format                      : MPEG-4 Visual
Format profile              : [email protected]
Format settings, BVOP       : No
Format settings, QPel       : No
Format settings, GMC        : No warppoints
Format settings, Matrix     : Default (H.263)
Codec ID                    : XVID
Codec ID/Hint               : XviD
Duration                    : 1h 27mn
Bit rate                    : 881 Kbps
Width                       : 640 pixels
Height                      : 360 pixels
Display aspect ratio        : 16:9
Frame rate                  : 29.970 fps
Color space                 : YUV
Chroma subsampling          : 4:2:0
Bit depth                   : 8 bits
Scan type                   : Progressive
Compression mode            : Lossy
Bits/(Pixel*Frame)          : 0.128
Stream size                 : 549 MiB (69%)
Writing library             : XviD 1.1.2 (UTC 2006-11-01)

Audio
ID                          : 1
Format                      : AC-3
Format/Info                 : Audio Coding 3
Mode extension              : CM (complete main)
Format settings, Endianness : Big
Codec ID                    : 2000
Duration                    : 1h 27mn
Bit rate mode               : Constant
Bit rate                    : 384 Kbps
Channel(s)                  : 6 channels
Channel positions           : Front: L C R, Side: L R, LFE
Sampling rate               : 48.0 KHz
Bit depth                   : 16 bits
Compression mode            : Lossy
Stream size                 : 239 MiB (30%)
Alignment                   : Aligned on interleaves
Interleave, duration        : 32 ms (0.96 video frame)
Interleave, preload duratio : 32 ms


MYSTERY_WOMAN_SING_ME_A_MURDER_DVDRip_av

MYSTERY_WOMAN_SING_ME_A_MURDER_DVDRip_av

MYSTERY_WOMAN_SING_ME_A_MURDER_DVDRip_av

MYSTERY_WOMAN_SING_ME_A_MURDER_DVDRip_av

Hidden Content
You'll be able to see the hidden content once you thank this post.






Also tagged with one or more of these keywords: 2005, misterija, sad, hallmark

0 user(s) are reading this topic

0 members, 0 guests, 0 anonymous users