Jump to content

Dobrodošli na Balkandownload.org
Tražite domaće knjige, exyu magazine, sinhronizirane crtane filmove, PC i ostale igre, strane i domaće filmove, dokumentarce, stranu i domaću muziku, itd. ? Ne morate tražiti dalje jer sve ćete to naći kod nas, uredno postavljeno i spremno za download. Osim toga registracijom možete sudjelovati u raznim postojećim temama na forumu, otvarati nove teme, sudjelovati u chatu i još mnogo toga. Ako već imaš otvoren račun, logiraj se ovde ,a ako želiš saznati zašto smo najbolji otvori novi račun i uverite se sami :)
Photo

Duga mracna noc (2004)


1 reply to this topic

#1
Zoran_

Zoran_

    Gold Member

  • VIP
  • PipPipPipPipPipPip
  • 5,984 posts
  • 149177 thanks
Duga mracna noc (2004)
 
 
Dugamracnanoc2004.png
 
imdb6.jpg
 

Please Login or Register to see this Hidden Content

 
 Radnja filma odvija se od 1940. do 1952. godine. U sredistu price je student Iva, koji se, kako bi izbjegao uhicenje jer je pomogao prijatelju Zidovu, vraca u svoje rodno selo u Slavoniji. Tamo vlada podjela izmedju onih koji prihvacaju nacizam i onih koji mu se protive, a na suprotnim stranama naci ce se i Iva i njegov najbolji prijatelj Mata. Iva odlazi u partizane, a Mata u ustase, gdje obojica prozivljavaju teska ratna stradanja, a kraj rata ne donosi rjesenje problema i medjuljudskih odnosa ni njima ni njihovoj domovini.
 
Dugamracnanoc2004.avi.gif
 
Dugamracnanoc2004.avi.jpg
 
downloade0cdd.gif
 
Duga mracna noc (2004) DVDRip avi
 
 
SFYUbuP.jpg
 
Hidden Content
You'll be able to see the hidden content once you thank this post.

Molbe za moje linkove, šaljite na PP.

 

Zabranjeno je kopiranje mojih linkova,reupload i postavljanje na druge forume!


Thanked by 65 Members:
dado71 , goransokolovic.fr , BlueRavenAngel , Zvonimir1996 , zkanal962 , robo76 , IdeMile , Ivan-Stanic , Cvrle , lovac666 , chefko , simia007 , milan1968 , dedamiro , joska12 , pepe333 , gugutan , August , Homss , toco222 , dome_12345 , nita84 , MEDISONGARDEN , kockari , duledudule , Heshan , miki-maus23 , msoldier , b50andi , dragansamardzic , danijeladanijel , Aquavald , Zvone 96 , calmirio , callipso , bojanastevica , nikollla , GhettoBlaster , draganadragana2010 , brankoz13 , samoja1 , dicky_thekid , jukinho , marek_05 , tgv , akiro , pericamihajlo , G-Zeko , Bozidar_12 , DeathStroke , suzi95 , milicamarko , henmax , 2504 , bibic , egdraz , zorandju , Cyrano , Melitta , micelj , pujs , OsBozo , bumbo0123 , cvijetic , Ljopatar

#2
Wolf 13

Wolf 13

    Advanced Member

  • Members
  • PipPipPip
  • 426 posts
  • 33362 thanks
Duga mracna noc (2004) DVDrip E-AC3 x264 by Wolf
(MKV)
 
BLfDHDA.jpg
 

Please Login or Register to see this Hidden Content

 

General
Unique ID                   : 177903836744850400019108563535287319920 (0x85D7085B263B2FDA1E11EFC8E4C87D70)
Complete name               : Duga mracna noc (2004) DVDrip E-AC3 x264 by Wolf.mkv
Format                      : Matroska
Format version              : Version 4 / Version 2
File size                   : 2.38 GiB
Duration                    : 3 h 13 min
Overall bit rate            : 1 757 kb/s
Encoded date                : UTC 2018-11-27 19:11:47 / UTC 2018-11-27T13:33:54Z
Writing application         : mkvmerge v28.2.0 ('The Awakening') 64-bit
Writing library             : libebml v1.3.6 + libmatroska v1.4.9 / Lavf57.7.2
 
Video
ID                          : 1
Format                      : AVC
Format/Info                 : Advanced Video Codec
Format profile              : [email protected]
Format settings             : CABAC / 8 Ref Frames
Format settings, CABAC      : Yes
Format settings, ReFrames   : 8 frames
Codec ID                    : V_MPEG4/ISO/AVC
Duration                    : 3 h 13 min
Bit rate                    : 1 500 kb/s
Width                       : 704 pixels
Height                      : 460 pixels
Display aspect ratio        : 16:10
Original display aspect rat : 16:10
Frame rate mode             : Constant
Frame rate                  : 25.000 FPS
Color space                 : YUV
Chroma subsampling          : 4:2:0
Bit depth                   : 8 bits
Scan type                   : Progressive
Bits/(Pixel*Frame)          : 0.185
Stream size                 : 1.99 GiB (83%)
Title                       : Duga mracna noc (2004)
Writing library             : x264 core 155 r2901 7d0ff22
Encoding settings           : cabac=1 / ref=8 / deblock=1:-1:-1 / analyse=0x3:0x133 / me=umh / subme=9 / psy=1 / psy_rd=1.00:0.15 / mixed_ref=1 / me_range=16 / chroma_me=1 / trellis=2 / 8x8dct=1 / cqm=0 / deadzone=21,11 / fast_pskip=1 / chroma_qp_offset=-3 / threads=6 / lookahead_threads=1 / sliced_threads=0 / nr=0 / decimate=1 / interlaced=0 / bluray_compat=0 / constrained_intra=0 / bframes=3 / b_pyramid=2 / b_adapt=2 / b_bias=0 / direct=3 / weightb=1 / open_gop=0 / weightp=2 / keyint=250 / keyint_min=25 / scenecut=40 / intra_refresh=0 / rc_lookahead=60 / rc=2pass / mbtree=1 / bitrate=1500 / ratetol=1.0 / qcomp=0.60 / qpmin=0 / qpmax=69 / qpstep=4 / cplxblur=20.0 / qblur=0.5 / vbv_maxrate=300000 / vbv_bufsize=300000 / nal_hrd=none / filler=0 / ip_ratio=1.40 / aq=1:1.00
Language                    : Croatian
Default                     : Yes
Forced                      : No
Color range                 : Limited
Color primaries             : BT.601 PAL
Transfer characteristics    : BT.709
Matrix coefficients         : BT.601
Statistics Tags Issue       : mkvmerge v28.2.0 ('The Awakening') 64-bit 2018-11-27 19:11:47 / mkvmerge v28.2.0 ('The Awakening') 64-bit 2018-11-27 19:11:47 / UTC 2018-11-27T13:33:54Z
FromStats_BitRate           : 1499907
FromStats_Duration          : 03:13:57.000000000
FromStats_FrameCount        : 290925
FromStats_StreamSize        : 2181802621
 
Audio
ID                          : 2
Format                      : E-AC-3
Format/Info                 : Enhanced Audio Coding 3
Codec ID                    : A_EAC3
Duration                    : 3 h 13 min
Bit rate mode               : Constant
Bit rate                    : 256 kb/s
Channel(s)                  : 6 channels
Channel positions           : Front: L C R, Side: L R, LFE
Sampling rate               : 48.0 kHz
Frame rate                  : 187.500 FPS (256 SPF)
Compression mode            : Lossy
Delay relative to video     : -5 ms
Stream size                 : 355 MiB (15%)
Title                       : Duga mracna noc (2004)
Language                    : Croatian
Service kind                : Complete Main
Default                     : Yes
Forced                      : No
Statistics Tags Issue       : mkvmerge v28.2.0 ('The Awakening') 64-bit 2018-11-27 19:11:47 / mkvmerge v28.2.0 ('The Awakening') 64-bit 2018-11-27 19:11:47 / UTC 2018-11-27T13:33:54Z
FromStats_BitRate           : 256000
FromStats_Duration          : 03:13:59.168000000
FromStats_FrameCount        : 363724
FromStats_StreamSize        : 372453376
 
Text
ID                          : 3
Format                      : UTF-8
Codec ID                    : S_TEXT/UTF8
Codec ID/Info               : UTF-8 Plain Text
Title                       : DUGA  MRACNA  NOC
Language                    : Croatian
Default                     : Yes
Forced                      : No
Statistics Tags Issue       : mkvmerge v28.2.0 ('The Awakening') 64-bit 2018-11-27 19:11:47 / mkvmerge v28.2.0 ('The Awakening') 64-bit 2018-11-27 19:11:47 / UTC 2018-11-27T13:33:54Z
FromStats_BitRate           : 6
FromStats_Duration          : 00:59:10.450000000
FromStats_FrameCount        : 122
FromStats_StreamSize        : 3095
 
epYscVA.png
Hidden Content
You'll be able to see the hidden content once you thank this post.
 
FQaG38o.png
6hz6sGL.jpg


Thanked by 41 Members:
dado71 , banecar50 , stankokljajic , zkanal962 , lilke , goraneo , xnoz25 , Zvonimir1996 , b50andi , MegiLara1 , robo76 , chefko , bvujacic , milan1968 , Zugail6 , Cvrle , dedamiro , 2504 , rafael13 , Zvone 96 , joska12 , danijeladanijel , dragan13 , danep , vlesk4 , copi666 , papak3333 , MladenNO , bojanastevica , Zelenac1 , stankokljajic20 , krkvis , 011gogo , ss_semi , opetopet , gigo2 , akiro , krabulja , Heshan , beograd1960' , icaleptir



0 user(s) are reading this topic

0 members, 0 guests, 0 anonymous users